<?xml version="1.0" standalone="no"?>
<!DOCTYPE svg PUBLIC "-//W3C//DTD SVG 1.1//EN" "http://www.w3.org/Graphics/SVG/1.1/DTD/svg11.dtd" >
<!--
2019-4-20: Created with FontForge (http://fontforge.org)
-->
<svg xmlns="http://www.w3.org/2000/svg" xmlns:xlink="http://www.w3.org/1999/xlink" version="1.1">
<metadata>
Created by FontForge 20170731 at Sat Apr 20 06:44:11 2019
 By root

</metadata>
<defs>
<font id="Flaticon" horiz-adv-x="512" >
  <font-face 
    font-family="Flaticon"
    font-weight="400"
    font-stretch="normal"
    units-per-em="512"
    panose-1="2 0 5 3 0 0 0 0 0 0"
    ascent="448"
    descent="-64"
    bbox="-0.00323586 -65.2247 513.126 448.012"
    underline-thickness="25.6"
    underline-position="-51.2"
    unicode-range="U+0020-F1BC"
  />
    <missing-glyph />
    <glyph glyph-name="space" unicode=" " horiz-adv-x="200" 
 />
    <glyph glyph-name="014-target" unicode="&#xf10d;" 
d="M449.596 326.222l-41.2217 4.58105l-9.69043 -9.68945c32.7363 -35.79 53.4639 -82.7305 55.7598 -134.385h18.2197c5.2998 0 9.59668 -4.29688 9.59668 -9.59668s-4.29688 -9.59668 -9.59668 -9.59668h-18.2197c-4.89746 -110.126 -93.5918 -198.82 -203.717 -203.716
v-18.2207c0 -5.2998 -4.29688 -9.59668 -9.59668 -9.59668s-9.59668 4.29688 -9.59668 9.59668v18.2207c-110.125 4.89648 -198.819 93.5898 -203.716 203.716h-18.2207c-5.2998 0 -9.59668 4.29688 -9.59668 9.59668s4.29688 9.59668 9.59668 9.59668h18.2207
c4.89648 110.127 93.5908 198.82 203.716 203.717v18.2197c0 5.2998 4.29688 9.59668 9.59668 9.59668s9.59668 -4.29688 9.59668 -9.59668v-18.2227c51.6543 -2.2959 98.5947 -23.0234 134.383 -55.7607l9.68945 9.69043l-4.58008 41.2227
c-0.322266 2.89844 0.691406 5.78613 2.75195 7.84766l51.7461 51.7461c2.63379 2.63281 6.55176 3.50488 10.0547 2.23633c3.50098 -1.2666 5.95312 -4.44629 6.28906 -8.15332l3.51953 -38.6914l38.6914 -3.5166c3.70703 -0.337891 6.88672 -2.78906 8.1543 -6.29102
c1.26855 -3.50293 0.395508 -7.4209 -2.23633 -10.0537l-51.7461 -51.7451c-1.81055 -1.80859 -4.25684 -2.81055 -6.78516 -2.81055c-0.353516 0 -0.707031 0.0185547 -1.0625 0.0585938zM443.802 417.127l-33.9951 -33.9961l3.73242 -33.5918l33.5918 -3.73242
l33.9961 33.9951l-26.25 2.38672c-4.61426 0.419922 -8.26758 4.07422 -8.6875 8.68848zM435.236 186.729c-2.2666 46.3652 -20.8545 88.5137 -50.1299 120.807l-28.8789 -28.8779c23.917 -27.085 38.457 -62.6377 38.457 -101.526
c0 -84.6719 -68.8848 -153.556 -153.556 -153.556s-153.556 68.8838 -153.556 153.556s68.8848 153.556 153.556 153.556c38.8896 0 74.4424 -14.5391 101.525 -38.459l28.8779 28.8789c-32.292 29.2744 -74.4395 47.8633 -120.806 50.1299v-13.5205
c0 -5.2998 -4.29688 -9.59668 -9.59668 -9.59668s-9.59668 4.29688 -9.59668 9.59668v13.5205c-99.541 -4.86426 -179.644 -84.9688 -184.508 -184.509h13.5205c5.2998 0 9.59668 -4.29688 9.59668 -9.59668s-4.29688 -9.59668 -9.59668 -9.59668h-13.5205
c4.86426 -99.54 84.9668 -179.645 184.509 -184.507v13.5195c0 5.2998 4.29688 9.59668 9.59668 9.59668s9.59668 -4.29688 9.59668 -9.59668v-13.5195c99.541 4.86328 179.644 84.9658 184.509 184.508h-13.5215c-5.2998 0 -9.59668 4.29688 -9.59668 9.59668
s4.29688 9.59668 9.59668 9.59668h13.5215zM234.344 170.345c-3.74707 3.74805 -3.74707 9.82422 -0.000976562 13.5732l52.1201 52.1201c-12.5605 9.6875 -28.2812 15.4717 -45.334 15.4717c-41.0127 0 -74.3789 -33.3662 -74.3789 -74.3789
s33.3662 -74.3789 74.3789 -74.3789s74.3789 33.3662 74.3789 74.3789c0 17.0527 -5.78418 32.7744 -15.4717 45.334l-52.1201 -52.1201c-1.87305 -1.87402 -4.33008 -2.81055 -6.78613 -2.81055s-4.91113 0.936523 -6.78613 2.81055zM241.131 270.703
c22.3496 0 42.8838 -7.88477 58.9951 -21.0059l28.9424 28.9424c-23.583 20.457 -54.3408 32.8535 -87.9365 32.8535c-74.0869 0 -134.36 -60.2754 -134.36 -134.362s60.2734 -134.361 134.36 -134.361s134.361 60.2744 134.361 134.361
c0 33.5967 -12.3965 64.3525 -32.8535 87.9355l-28.9414 -28.9424c13.1211 -16.1104 21.0059 -36.6465 21.0059 -58.9941c0 -51.5957 -41.9766 -93.5732 -93.5732 -93.5732s-93.5732 41.9775 -93.5732 93.5732s41.9766 93.5732 93.5732 93.5732z" />
    <glyph glyph-name="057-smartphone-1" unicode="&#xf138;" 
d="M388.485 448c17.874 0 32.4141 -14.541 32.415 -32.415v-447.171c0 -17.874 -14.541 -32.415 -32.415 -32.415h-264.97c-17.874 0 -32.415 14.542 -32.415 32.415v447.171c0 17.874 14.54 32.415 32.4141 32.415h264.971zM107.344 366.528v-338.604h297.313v338.604
h-297.313zM123.515 431.757c-8.91602 0 -16.1709 -7.25391 -16.1709 -16.1719v-38.2285h297.313v38.2285c0 8.91797 -7.25586 16.1719 -16.1719 16.1719h-264.971zM388.485 -47.7568c8.91602 0 16.1709 7.25391 16.1709 16.1719v48.6807h-297.313v-48.6807
c0 -8.91797 7.25586 -16.1719 16.1719 -16.1719h264.971zM256.001 9.91699c14.667 0 26.5996 -11.9346 26.5996 -26.6016c0 -14.666 -11.9336 -26.5996 -26.5996 -26.5996c-14.667 0 -26.6006 11.9316 -26.6006 26.5996s11.9326 26.6016 26.6006 26.6016zM256.001 -32.4551
c8.69629 0 15.7705 7.0752 15.7705 15.7705c0 8.69727 -7.07422 15.7725 -15.7705 15.7725c-8.69727 0 -15.7715 -7.0752 -15.7715 -15.7725c0 -8.69531 7.07422 -15.7705 15.7715 -15.7705zM219.183 396.406c-2.99121 0 -5.41504 2.42383 -5.41504 5.41406
s2.42383 5.41406 5.41504 5.41406h73.6357c2.99121 0 5.41504 -2.42383 5.41504 -5.41406s-2.42383 -5.41406 -5.41504 -5.41406h-73.6357zM199.693 396.406c-1.42871 0 -2.82617 0.573242 -3.83301 1.58105c-1.00684 1.01758 -1.58105 2.40332 -1.58105 3.83301
s0.574219 2.82617 1.58105 3.83301c1.0166 1.00781 2.4043 1.58105 3.83301 1.58105c1.41797 0 2.81445 -0.573242 3.82324 -1.58105c1.00684 -1.01758 1.5918 -2.40332 1.5918 -3.83301s-0.584961 -2.81543 -1.5918 -3.83301
c-1.00781 -1.00781 -2.4043 -1.58105 -3.82324 -1.58105z" />
    <glyph glyph-name="077-calculator" unicode="&#xf14c;" 
d="M431.667 448c13.7129 0 24.8662 -11.1611 24.8662 -24.8662v-462.268c0 -13.7051 -11.1533 -24.8662 -24.8662 -24.8662h-351.334c-13.7129 0 -24.8662 11.1611 -24.8662 24.8662v462.268c0 13.7051 11.1533 24.8662 24.8662 24.8662h351.334zM439.467 -39.1338v462.268
c0 4.30078 -3.49902 7.7998 -7.7998 7.7998h-351.334c-4.30078 0 -7.7998 -3.49902 -7.7998 -7.7998v-462.268c0 -4.30078 3.49902 -7.7998 7.7998 -7.7998h351.334c4.30078 0 7.7998 3.49902 7.7998 7.7998zM98.1338 -21.333v93.8662h93.8662v-93.8662h-93.8662z
M115.2 55.4668v-59.7334h59.7334v59.7334h-59.7334zM209.066 -21.333v93.8662h93.8672v-93.8662h-93.8672zM226.134 55.4668v-59.7334h59.7324v59.7334h-59.7324zM320 -21.333v204.8h93.8662v-204.8h-93.8662zM337.066 166.4v-170.667h59.7334v170.667h-59.7334z
M98.1338 89.5996v93.8672h93.8662v-93.8672h-93.8662zM115.2 166.4v-59.7334h59.7334v59.7334h-59.7334zM209.066 89.5996v93.8672h93.8672v-93.8672h-93.8672zM226.134 166.4v-59.7334h59.7324v59.7334h-59.7324zM98.1338 200.533v93.8672h93.8662v-93.8672h-93.8662z
M115.2 277.333v-59.7334h59.7334v59.7334h-59.7334zM209.066 200.533v93.8672h93.8672v-93.8672h-93.8672zM226.134 277.333v-59.7334h59.7324v59.7334h-59.7324zM320 200.533v93.8672h93.8662v-93.8672h-93.8662zM337.066 277.333v-59.7334h59.7334v59.7334h-59.7334z
M98.1338 320v85.333h315.732v-85.333h-315.732zM115.2 388.267v-51.2002h281.6v51.2002h-281.6z" />
    <glyph glyph-name="115-open-mail-interface-symbol" unicode="&#xf172;" 
d="M256.001 448l255.998 -192v-319.999h-511.998v319.999zM256.001 138.935l-199.403 -170.934h398.811zM480.003 -10.9355v230.593l-140.346 -110.282zM466.755 249.937l-210.754 158.064l-210.749 -158.064l151.873 -119.312l58.876 50.4404l58.8799 -50.4736z
M172.347 109.375l-140.345 110.282v-230.593z" />
    <glyph glyph-name="164-right-arrow-inside-a-circle" unicode="&#xf1a3;" 
d="M256 448c141.23 0 255.69 -115.079 255.69 -256.31c0 -141.231 -114.46 -255.69 -255.69 -255.69s-255.69 115.079 -255.69 256.31c0 141.231 114.46 255.69 255.69 255.69zM256 -39.2119c127.164 0 230.902 104.42 230.902 231.584
c0 127.163 -103.738 230.901 -230.902 230.901s-230.902 -104.42 -230.902 -231.583c0 -127.164 103.738 -230.902 230.902 -230.902zM375.107 186.36c0 0 0 -0.681641 -0.681641 -0.681641c-0.682617 -0.681641 -0.682617 -1.36328 -1.36426 -1.9834l-92.335 -92.3359
c-2.66504 -2.66406 -5.33008 -3.3457 -8.67578 -3.3457c-3.34668 0 -6.01172 1.36328 -8.67578 3.3457c-4.70996 4.70996 -4.70996 12.7041 0 17.4141l70.9561 70.957h-196.138c-6.69238 0 -12.0225 5.3291 -12.0225 12.0225c0 6.69238 5.33008 12.0225 12.0225 12.0225
h196.075l-70.2129 70.2129c-4.70996 4.70898 -4.70996 12.7031 0 17.4141c4.70996 4.70898 12.7041 4.70898 17.4141 0l90.9727 -91.0352c0.681641 -0.681641 1.36426 -1.36328 1.36426 -1.9834l0.681641 -0.681641c0 -0.681641 0.681641 -0.681641 0.681641 -1.36328
s0 -0.681641 0.681641 -1.36328v-1.36426v-4.70898v-1.36426c-0.0625 -0.557617 -0.0625 -0.557617 -0.744141 -1.17773v0z" />
    <glyph glyph-name="034-transport" unicode="&#xf121;" 
d="M286.939 -64h-61.8877c-12.3613 0 -22.5977 9.26367 -23.8154 21.54l-6.34473 38.0205c-11.9209 3.70605 -23.5029 8.51953 -34.5684 14.3398l-31.8447 -22.7412c-3.80762 -3.15625 -9.1875 -5.08398 -14.7041 -5.08398c-6.39648 0 -12.4023 2.49414 -16.9297 7.02148
l-43.7568 43.7578c-8.73926 8.73926 -9.41602 22.5293 -1.58984 32.0889l22.4023 31.3799c-5.83789 11.082 -10.6436 22.6729 -14.3398 34.5605l-38.5791 6.4375c-11.709 1.125 -20.9814 11.3623 -20.9814 23.7393v61.8789c0 12.3604 9.26367 22.5977 21.54 23.8242
l38.0205 6.3623c3.71289 11.9375 8.52734 23.5195 14.3311 34.5518l-22.7324 31.8447c-7.49609 9.09473 -6.81934 22.8838 1.92871 31.6162l43.7656 43.7734c8.43555 8.41797 22.877 9.11914 32.0645 1.60645l31.4219 -22.4111
c11.0234 5.81152 22.6055 10.6172 34.5518 14.332l6.4209 38.5703c1.14258 11.7266 11.3877 20.9902 23.748 20.9902h61.8867c12.3447 0 22.5811 -9.25488 23.8252 -21.5234l6.35352 -38.0371c11.9297 -3.71387 23.5117 -8.52051 34.5439 -14.332l31.8525 22.7412
c3.79883 3.14746 9.17969 5.06836 14.6943 5.06836c6.39746 0 12.4033 -2.4873 16.9219 -7.00488l43.7568 -43.7734c8.73145 -8.70605 9.43262 -22.4873 1.62305 -32.0566l-22.4102 -31.4053c5.82031 -11.0322 10.6172 -22.6143 14.3311 -34.5518l38.5791 -6.43848
c11.7266 -1.14941 20.9814 -11.3867 20.9814 -23.7471v-61.8789c0 -12.377 -9.26367 -22.6055 -21.5576 -23.7979l-38.0029 -6.35352c-3.71387 -11.9463 -8.52051 -23.5371 -14.332 -34.5684l22.7412 -31.8369c7.4873 -9.12891 6.78516 -22.9277 -1.96289 -31.6416
l-43.748 -43.748c-8.40137 -8.40918 -22.877 -9.15332 -32.0898 -1.59863l-31.3789 22.3945c-11.0664 -5.8291 -22.6475 -10.6426 -34.5439 -14.3408l-6.44629 -38.5869c-1.15039 -11.7188 -11.3867 -20.9824 -23.7393 -20.9824zM159.713 28.3262
c1.42188 0 2.85156 -0.354492 4.13672 -1.08203c12.8945 -7.22559 26.6162 -12.9189 40.8213 -16.9375c3.14746 -0.887695 5.49902 -3.51953 6.04004 -6.75098l7.28516 -43.791c0.422852 -4.07812 3.49414 -6.84473 7.05566 -6.84473h61.8877
c3.56152 0 6.62402 2.75879 6.9707 6.28613l7.38574 44.3496c0.533203 3.22363 2.89355 5.85449 6.04102 6.74316c14.1709 4.01074 27.8936 9.7041 40.7959 16.9375c2.85059 1.60742 6.3877 1.41211 9.05273 -0.499023l36.1328 -25.8125
c3.64648 -2.93555 7.36133 -2.32617 9.83105 0.134766l43.7646 43.7656c2.57129 2.5625 2.77441 6.59863 0.490234 9.39844l-26.1592 36.5742c-1.91211 2.66602 -2.09766 6.19238 -0.499023 9.06055c7.22461 12.8438 12.9102 26.5654 16.9209 40.7959
c0.888672 3.15625 3.51855 5.50781 6.75879 6.04883l43.7998 7.30176c4.07812 0.423828 6.84473 3.47656 6.84473 7.03906v61.8789c0 3.56055 -2.75781 6.63184 -6.28613 6.97949l-44.3486 7.37695c-3.24023 0.541016 -5.86426 2.89258 -6.75977 6.04883
c-4.01074 14.2305 -9.70508 27.9531 -16.9209 40.7783c-1.59961 2.86914 -1.41309 6.39648 0.499023 9.06152l25.8291 36.1504c2.61426 3.23145 2.40234 7.25879 -0.152344 9.81348l-43.7637 43.7832c-2.46191 2.46191 -6.70117 2.67285 -9.375 0.481445l-36.5986 -26.167
c-2.66504 -1.91211 -6.20117 -2.09766 -9.05176 -0.499023c-12.8506 7.21582 -26.5742 12.9102 -40.7959 16.9375c-3.14746 0.879883 -5.49902 3.51953 -6.04102 6.75098l-7.29297 43.791c-0.448242 4.16211 -3.45215 6.86914 -7.07227 6.86914h-61.8877
c-3.62891 0 -6.62402 -2.69922 -6.97949 -6.28613l-7.36133 -44.3398c-0.532227 -3.23242 -2.89258 -5.86328 -6.04004 -6.75195c-14.2471 -4.03516 -27.9697 -9.7207 -40.7861 -16.9375c-2.87695 -1.59961 -6.4043 -1.41309 -9.06152 0.499023l-36.168 25.8301
c-3.63867 2.91016 -7.36914 2.32617 -9.83105 -0.152344l-43.7646 -43.7656c-2.55469 -2.55469 -2.74902 -6.58203 -0.464844 -9.36523l26.1504 -36.6084c1.91309 -2.67285 2.09863 -6.20117 0.5 -9.06152c-7.20898 -12.8252 -12.9023 -26.5479 -16.9385 -40.7861
c-0.879883 -3.14746 -3.51953 -5.5 -6.75098 -6.04199l-43.79 -7.30078c-4.14648 -0.439453 -6.84473 -3.44336 -6.84473 -7.07324v-61.8779c0 -3.62109 2.69043 -6.61621 6.26855 -6.96289l44.3574 -7.37695c3.23242 -0.533203 5.86328 -2.89355 6.75195 -6.04883
c4.00098 -14.1543 9.69531 -27.8857 16.9375 -40.8125c1.59961 -2.85938 1.41309 -6.37891 -0.499023 -9.04492l-25.8125 -36.1328c-2.63965 -3.24902 -2.4375 -7.27539 0.125977 -9.83984l43.7646 -43.7568c2.4873 -2.47852 6.70996 -2.69824 9.375 -0.481445
l36.5996 26.1504c1.4707 1.04102 3.19727 1.57324 4.92285 1.57324zM256.009 90.7305c-55.8555 0 -101.295 45.4316 -101.295 101.278c0 55.8545 45.4395 101.294 101.295 101.294s101.286 -45.4395 101.286 -101.294
c-0.00878906 -55.8379 -45.4404 -101.278 -101.286 -101.278zM256.009 276.383c-46.5234 0 -84.375 -37.8516 -84.375 -84.374c0 -46.5156 37.8516 -84.3574 84.375 -84.3574c46.5146 0 84.3662 37.8418 84.3662 84.3574
c-0.00878906 46.5234 -37.8525 84.374 -84.3662 84.374z" />
    <glyph glyph-name="102-shopping-cart" unicode="&#xf165;" 
d="M214.686 45.1709c24.8281 0 45.0283 -20.2002 45.0293 -45.0283c0 -24.8291 -20.2002 -45.0293 -45.0293 -45.0293s-45.0293 20.2002 -45.0293 45.0293c0 24.8281 20.2002 45.0283 45.0293 45.0283zM214.686 -19.7432c10.9648 0 19.8867 8.91992 19.8867 19.8877
c0 10.9648 -8.92188 19.8867 -19.8867 19.8867s-19.8867 -8.9209 -19.8867 -19.8867s8.9209 -19.8877 19.8867 -19.8877zM372.631 45.1709c24.8281 0 45.0283 -20.2002 45.0293 -45.0283c0 -24.8291 -20.2002 -45.0293 -45.0293 -45.0293s-45.0293 20.2002 -45.0293 45.0293
c0 24.8281 20.2002 45.0283 45.0293 45.0283zM372.631 -19.7432c10.9648 0 19.8867 8.91992 19.8867 19.8877c0 10.9648 -8.9209 19.8867 -19.8867 19.8867c-10.9648 0 -19.8867 -8.9209 -19.8867 -19.8867s8.9209 -19.8877 19.8867 -19.8877zM383.717 282.245
c6.94336 0 12.5713 -5.62793 12.5713 -12.5713s-5.62793 -12.5713 -12.5713 -12.5713h-180.149c-6.94238 0 -12.5713 5.62793 -12.5713 12.5713c0 6.94238 5.62793 12.5713 12.5713 12.5713h180.149zM373.912 216.965c6.94141 0 12.5693 -5.62891 12.5693 -12.5713
c0 -6.94336 -5.62793 -12.5713 -12.5703 -12.5713h-160.538c-6.94238 0 -12.5703 5.62793 -12.5703 12.5713s5.62793 12.5713 12.5703 12.5713h160.539zM506.342 338.256c4.79492 -5.88281 6.66699 -13.5225 5.13574 -20.9541l-35.1631 -170.676
c-2.39453 -11.6279 -12.752 -20.0674 -24.624 -20.0674h-310.893l7.39941 -35.916h301.166c6.94238 0 12.5703 -5.62793 12.5703 -12.5713s-5.62793 -12.5713 -12.5703 -12.5713h-301.167c-11.873 0 -22.2295 8.44043 -24.625 20.0684l-60.8262 295.262l-55.1777 23.9512
c-6.36719 2.7627 -9.29004 10.167 -6.52441 16.5371c2.7627 6.36719 10.166 9.29102 16.5361 6.52344l55.1768 -23.9502c7.50098 -3.25684 12.9629 -9.98047 14.6143 -17.9883l7.9082 -38.3896h391.574c7.5918 0 14.6953 -3.37402 19.4893 -9.25781zM451.69 151.698
l35.1611 170.674l-386.394 0.000976562l35.1611 -170.675h316.071z" />
    <glyph glyph-name="063-back" unicode="&#xf13e;" 
d="M155.784 192.014l231.12 -231.228c5.68652 -5.6875 5.68652 -14.8076 0 -20.4941c-2.79004 -2.89746 -6.54492 -4.29199 -10.1934 -4.29199s-7.40332 1.50195 -10.1934 4.29199l-241.528 241.421c-5.68652 5.68652 -5.68652 14.8066 0 20.4941l241.528 241.528
c5.68652 5.68652 14.8076 5.68652 20.4941 0c5.68652 -5.6875 5.68652 -14.8076 0 -20.4941z" />
    <glyph glyph-name="019-telegram-logo" unicode="&#xf112;" 
d="M502.547 424.215c5.4375 -7.14746 13.6035 -22.7676 6.95508 -47.2246l-88.1475 -323.889c-2.47852 -9.22168 -4.78418 -17.5801 -6.45605 -23.6123c-3.38086 -12.2002 -9.68262 -34.9678 -35.9658 -34.9678c-4.36133 0 -8.70312 0.826172 -12.7764 2.44043
c-1.8252 0.749023 -3.57324 1.61426 -5.22559 2.63184c-5.3418 2.20996 -15.4854 6.37891 -27.0713 11.1055l-57.792 23.5547c-3.38086 1.36426 -7.33887 2.93945 -11.5469 4.64941c-1.05664 -12.7188 -7.30078 -22.709 -10.1055 -27.0127
c-36.0244 -58.6377 -42.5566 -69.2432 -64.5742 -69.2432c-14.2939 0 -27.3203 9.18359 -32.4307 22.5176c-2.0752 5.36035 -19.2324 43.9395 -34.6602 78.1191c-0.134766 0.306641 -0.268555 0.614258 -0.40332 0.979492c-8.7998 21.2305 -8.31934 40.9424 1.40234 55.4863
c0.65332 0.960938 1.51758 1.67188 2.22852 2.59375c-1.86328 -0.0957031 -3.66895 -0.345703 -5.55176 -0.345703c-11.9121 0 -22.9785 2.01758 -32.873 5.93652l-52.1631 20.6348c-30.4326 12.085 -34.8711 34.6592 -35.332 43.8623
c-0.480469 9.14551 1.53711 32.0859 30.5479 47.3213l408.175 214.011c9.58691 5.0332 19.0977 7.58887 28.2812 7.58887c14.2178 0 27.1475 -6.24414 35.4854 -17.1377zM225.308 30.335c10.3555 15.8496 4.18848 19.5576 -15.1973 29.8174l-2.36328 1.19141
l-1.26758 0.480469c-5.03418 1.97852 -9.60645 4.45703 -13.7949 7.32031l-25.0918 13.0449c-3.15137 1.30664 -5.84082 1.90234 -8.08887 1.90234c-10.2402 0 -11.3164 -12.2959 -5.36035 -26.6484c0 0 32.3164 -71.6055 35.5244 -80.2324
c0.0380859 -0.0761719 0.0771484 -0.115234 0.15332 -0.115234c2.78613 0 35.4863 53.2393 35.4863 53.2393zM476.265 386.059c3.57324 13.1602 -0.422852 20.8457 -9.20312 20.8457c-3.41992 0 -7.55078 -1.15332 -12.2578 -3.6123l-408.213 -214.049
c-16.7725 -8.83789 -16.1006 -21.7109 1.51758 -28.6846l52.124 -20.6152c5.97559 -2.36328 12.9883 -3.5166 20.2119 -3.5166c14.1025 0 29.1074 4.30371 38.9824 12.0088l226.365 178.562c6.64746 5.20703 10.624 7.76172 11.8535 7.76172
c1.55664 0 -1.15234 -3.95703 -8.33789 -11.623l-178.909 -191.57c-10.7588 -11.4697 -9.81738 -24.9961 0.883789 -33.1992l10.7979 -5.61035l2.91992 -1.17188c17.6572 -6.80176 46.457 -18.3096 64.0166 -25.4189l57.8311 -23.5547
c17.5605 -7.18555 31.9316 -13.0645 31.9316 -13.1797c0 -0.0576172 0.0957031 -0.40332 0.172852 -0.442383c0.0761719 0 4.22656 14.9287 9.20215 33.1807z" />
    <glyph glyph-name="136-moon" unicode="&#xf187;" 
d="M365.796 419.282c124.437 -69.3857 169.064 -226.509 99.6787 -350.945c-45.542 -81.6729 -131.717 -132.308 -225.23 -132.337c-93.5479 0.0722656 -179.751 50.6992 -225.384 132.362c-2.1875 3.87695 -0.818359 8.79395 3.05859 10.9814
c2.46094 1.3877 5.46875 1.38672 7.92773 -0.00292969c116.787 -64.9043 264.077 -22.8428 328.979 93.9443c40.6143 73.082 40.6143 161.953 0 235.035c-2.16797 3.8877 -0.772461 8.79785 3.11523 10.9648c2.44238 1.36133 5.41504 1.36035 7.85449 -0.00292969z
M381.511 -2.01465c108.312 78.1172 132.792 229.247 54.6748 337.561c-15.1748 21.042 -33.6387 39.5049 -54.6797 54.6797c54.9346 -131.495 -7.12891 -282.627 -138.624 -337.562c-63.6445 -26.5889 -135.287 -26.5898 -198.933 -0.00195312
c78.1172 -108.312 229.248 -132.792 337.562 -54.6758zM208.142 273.064c-8.26953 44.8701 -13.1387 49.7549 -58.0332 58.0322l-43.04 7.90723l43.0566 7.92285c44.8779 8.26172 49.7471 13.1455 58.0322 58.0322l7.90723 43.041l7.92285 -43.0566
c8.26953 -44.8711 13.1377 -49.7549 58.0322 -58.0332l43.041 -7.90625l-43.0566 -7.92285c-44.8789 -8.26172 -49.7471 -13.1465 -58.0322 -58.0332l-7.90723 -43.041zM216.064 370.309c-4.64453 -14.9521 -16.3525 -26.6592 -31.3057 -31.3047
c14.9531 -4.64453 26.6611 -16.3535 31.3057 -31.3057c4.64551 14.9521 16.3525 26.6611 31.3057 31.3057c-14.9531 4.64551 -26.6602 16.3525 -31.3057 31.3047zM119.48 111.862c-8.26953 44.8711 -13.1377 49.7549 -58.0322 58.0332l-43.041 7.90625l43.0566 7.92383
c44.8789 8.26074 49.7471 13.1455 58.0332 58.0322l7.90625 43.041l7.92285 -43.0576c8.27051 -44.8701 13.1387 -49.7549 58.0332 -58.0322l43.041 -7.90723l-43.0576 -7.92285c-44.8779 -8.26172 -49.7461 -13.1455 -58.0322 -58.0322l-7.90723 -43.041zM127.403 209.107
c-4.64453 -14.9521 -16.3525 -26.6592 -31.3047 -31.3057c14.9521 -4.64551 26.6592 -16.3525 31.3047 -31.3047c4.64551 14.9521 16.3535 26.6602 31.3057 31.3047c-14.9521 4.64648 -26.6602 16.3535 -31.3057 31.3057z" />
    <glyph glyph-name="059-arrows-3" unicode="&#xf13a;" 
d="M256 -38.5986c-127.008 0 -230.201 103.591 -230.201 230.599s102.797 230.201 230.201 230.201s230.599 -102.797 230.599 -230.201s-103.591 -230.599 -230.599 -230.599zM256 390.053c-109.147 0 -198.053 -88.9053 -198.053 -198.053
s88.9053 -198.053 198.053 -198.053s198.053 88.9053 198.053 198.053s-88.9053 198.053 -198.053 198.053zM277.829 76.8994l-104.781 104.781c-3.1748 3.1748 -4.7627 7.14453 -4.7627 11.5098c0 4.36621 1.58789 8.33496 4.7627 11.5107l104.781 104.781
c6.35059 6.35059 16.6699 6.35059 23.0205 0s6.35059 -16.6699 0 -23.0205l-93.2715 -93.2715l93.2715 -93.2715c6.35059 -6.34961 6.35059 -16.6689 0 -23.0195c-3.1748 -3.17578 -7.54102 -4.7627 -11.5098 -4.7627c-4.36621 0 -8.33496 1.58691 -11.5107 4.7627z" />
    <glyph glyph-name="071-up-chevron" unicode="&#xf146;" 
d="M437.02 373.02c48.3516 -48.3525 74.9805 -112.64 74.9805 -181.02s-26.6289 -132.667 -74.9805 -181.02c-48.3525 -48.3516 -112.64 -74.9805 -181.02 -74.9805s-132.667 26.6289 -181.02 74.9805c-48.3516 48.3525 -74.9805 112.64 -74.9805 181.02
s26.6289 132.667 74.9805 181.02c48.3525 48.3516 112.64 74.9805 181.02 74.9805s132.667 -26.6289 181.02 -74.9805zM256 -32.3301c123.696 0 224.33 100.634 224.33 224.33s-100.634 224.33 -224.33 224.33s-224.33 -100.634 -224.33 -224.33
s100.634 -224.33 224.33 -224.33zM120.78 162.416l135.22 134.779l135.22 -134.779l-22.3574 -22.4307l-112.862 112.495l-112.862 -112.495z" />
    <glyph glyph-name="029-desktop-computer-with-magnifying-lens-focusing-on-data" unicode="&#xf11c;" 
d="M496.577 99.7783l-17.2148 29.8076c6.94824 8.1123 12.6426 17.1621 17.2148 26.8682v-56.6758zM435.383 48.1221h-169.558v-36.584h131.417l17.5234 -17.5273v-17.5176h-332.92v17.5176l17.5215 17.5273h131.416v36.584h-187.842
c-23.5938 0 -42.9414 19.3135 -42.9414 42.9473v273.5c0 23.625 19.332 42.9414 42.9414 42.9414h410.691c23.6064 0 42.9443 -19.3193 42.9443 -42.9414v-106.55c-1.37012 2.87012 -2.77051 5.74707 -4.38086 8.54297c-3.76562 6.52344 -8.30859 12.4238 -13.1406 18.0215
v79.9854c0 14.0156 -11.4014 25.4199 -25.4229 25.4199h-410.691c-14.0127 0 -25.4199 -11.4043 -25.4199 -25.4199v-220.933c0 -14.0479 11.4102 -25.4336 25.4199 -25.4336h267.461c21.5303 -18.9531 49.417 -30.126 78.918 -30.126
c7.2959 0 14.5508 0.941406 21.6963 2.27637zM480.835 260.012c29.1914 -50.5498 11.8115 -115.415 -38.7383 -144.61c-50.5869 -29.1914 -115.434 -11.8047 -144.631 38.7451c-29.1924 50.5371 -11.7988 115.396 38.7471 144.588
c50.5469 29.1729 115.435 11.833 144.622 -38.7227zM449.971 248.854c0 -1.30371 0.610352 -1.9668 1.94531 -1.9668c1.2666 0 1.95117 0.650391 1.95117 1.9668v16.874c0 1.31641 -0.68457 1.95801 -1.95117 1.95801c-1.33496 0 -1.94531 -0.644531 -1.94531 -1.95801
v-16.874zM324.399 248.854c0 -1.30371 0.65625 -1.9668 1.95703 -1.9668s1.94238 0.650391 1.94238 1.9668v16.874c0 1.31641 -0.641602 1.95801 -1.94238 1.95801s-1.95703 -0.644531 -1.95703 -1.95801v-16.874zM465.606 251.233
c-2.08887 3.64648 -4.6875 6.80176 -7.22363 10.0283v-11.7383c0 -2.00195 -0.631836 -3.60938 -1.93262 -4.75098c-1.28223 -1.16309 -2.84277 -1.75391 -4.55273 -1.75391c-1.76074 0 -3.26855 0.59082 -4.56934 1.75391
c-1.24121 1.13867 -1.93262 2.72754 -1.93262 4.75098v15.3477c0 2.17285 0.691406 3.81836 1.93262 4.97168c0.685547 0.597656 1.63281 0.616211 2.41113 0.916016c-27.6465 26.249 -70.1221 32.8193 -104.767 12.8057
c-6.20117 -3.59277 -11.6367 -7.98926 -16.6396 -12.7549c0.891602 -0.282227 1.83203 -0.334961 2.56738 -0.985352c1.30078 -1.1543 1.98535 -2.79883 1.98535 -4.96875v-15.3477c0 -2.00781 -0.68457 -3.6123 -1.98535 -4.75684
c-1.30078 -1.1543 -2.80469 -1.74512 -4.54395 -1.74512c-1.75391 0 -3.25781 0.59082 -4.59668 1.74512c-1.22852 1.14746 -1.91406 2.73633 -1.91406 4.75684v12.1045c-21.627 -27.5654 -25.7666 -66.5762 -7.18555 -98.7256
c3.28613 -5.64453 7.18555 -10.748 11.4297 -15.417v23.6631h4.55566v-27.8594c27.6465 -26.1426 70.0566 -32.6777 104.692 -12.708c6.12012 3.50488 11.4199 7.7832 16.3516 12.4424v28.0938h4.53711v-23.2441c25.0674 27.6943 31.0615 69.3154 11.3799 103.376z
M468.702 121.906l35.0576 -60.6787l-45.543 -26.2988l-35.0518 60.6914zM508.451 52.9629c7.29492 -12.5586 2.97656 -28.6133 -9.61035 -35.8994c-12.5986 -7.25781 -28.6504 -2.97656 -35.9336 9.61621zM370.496 271.578v-28.5596h-4.55371v28.5596h4.55371z
M372.757 219.612c1.30078 -1.16309 1.94824 -2.80859 1.94824 -4.96289v-15.3662c0 -2.02051 -0.647461 -3.6123 -1.94824 -4.77539c-1.30078 -1.14453 -2.84277 -1.72559 -4.55371 -1.72559c-1.73828 0 -3.2832 0.581055 -4.55273 1.72559
c-1.29785 1.16309 -1.91406 2.75488 -1.91406 4.77539v15.3662c0 2.1543 0.616211 3.7998 1.91406 4.96289c1.23828 1.1543 2.81445 1.74512 4.55273 1.74512c1.71094 0 3.21484 -0.59082 4.55371 -1.74512zM370.174 215.503c0 1.30078 -0.654297 1.95508 -1.95117 1.95508
c-1.28613 0 -1.93262 -0.650391 -1.93262 -1.95508v-16.8857c0 -1.29199 0.646484 -1.95117 1.93262 -1.95117c1.29688 0 1.95117 0.65625 1.95117 1.95117v16.8857zM372.757 169.391c1.30078 -1.13184 1.94824 -2.80469 1.94824 -4.96191v-15.3672
c0 -1.98535 -0.647461 -3.61133 -1.94824 -4.75586c-1.30078 -1.14746 -2.84277 -1.74805 -4.55371 -1.74805c-1.73828 0 -3.2832 0.584961 -4.55273 1.74805c-1.29785 1.12891 -1.91406 2.73633 -1.91406 4.75586v15.3672c0 2.1543 0.616211 3.83008 1.91406 4.96191
c1.23828 1.12598 2.81445 1.74512 4.55273 1.74512c1.71094 -0.00292969 3.21484 -0.619141 4.55371 -1.74512zM370.174 165.279c0 1.30371 -0.654297 1.95117 -1.95117 1.95117c-1.28613 0 -1.93262 -0.647461 -1.93262 -1.95117v-16.8711
c0 -1.30078 0.646484 -1.95117 1.93262 -1.95117c1.29688 0 1.95117 0.650391 1.95117 1.95117v16.8711zM330.9 219.612c1.2666 -1.16309 1.95117 -2.80859 1.95117 -4.96289v-15.3662c0 -2.02051 -0.68457 -3.6123 -1.95117 -4.77539
c-1.30078 -1.14453 -2.83301 -1.72559 -4.54395 -1.72559c-1.7793 0 -3.28613 0.581055 -4.59668 1.72559c-1.25684 1.16309 -1.91406 2.75488 -1.91406 4.77539v15.3662c0 2.1543 0.657227 3.7998 1.91406 4.96289c1.31055 1.1543 2.81445 1.74512 4.59668 1.74512
c1.71094 0 3.24316 -0.59082 4.54395 -1.74512zM328.333 215.503c0 1.30078 -0.675781 1.95508 -1.96387 1.95508c-1.29785 0 -1.9541 -0.650391 -1.9541 -1.95508v-16.8857c0 -1.29199 0.65625 -1.95117 1.9541 -1.95117c1.28809 0 1.96387 0.65625 1.96387 1.95117
v16.8857zM414.609 269.84c1.30078 -1.1543 1.95117 -2.79883 1.95117 -4.97266v-15.3477c0 -2.00098 -0.650391 -3.6084 -1.95117 -4.75c-1.31641 -1.16309 -2.82031 -1.75391 -4.54297 -1.75391c-1.75488 0 -3.28711 0.59082 -4.55664 1.75391
c-1.30078 1.13867 -1.9541 2.72754 -1.9541 4.75v15.3477c0 2.17383 0.65332 3.81836 1.9541 4.97266c1.26953 1.15723 2.80176 1.73828 4.55664 1.73828c1.72266 0 3.22656 -0.600586 4.54297 -1.73828zM412.052 265.728c0 1.31641 -0.691406 1.95801 -1.98535 1.95801
c-1.28906 0 -1.93945 -0.644531 -1.93945 -1.95801v-16.874c0 -1.30371 0.650391 -1.9668 1.93945 -1.9668c1.29395 0 1.98535 0.650391 1.98535 1.9668v16.874zM414.609 219.612c1.30078 -1.16309 1.95117 -2.80859 1.95117 -4.96289v-15.3662
c0 -2.02051 -0.650391 -3.6123 -1.95117 -4.77539c-1.31641 -1.14453 -2.82031 -1.72559 -4.54297 -1.72559c-1.75488 0 -3.28711 0.581055 -4.55664 1.72559c-1.30078 1.16309 -1.9541 2.75488 -1.9541 4.77539v15.3662c0 2.1543 0.65332 3.7998 1.9541 4.96289
c1.26953 1.1543 2.80176 1.74512 4.55664 1.74512c1.72266 0 3.22656 -0.59082 4.54297 -1.74512zM412.052 215.503c0 1.30078 -0.691406 1.95508 -1.98535 1.95508c-1.28906 0 -1.93945 -0.650391 -1.93945 -1.95508v-16.8857
c0 -1.29199 0.650391 -1.95117 1.93945 -1.95117c1.29395 0 1.98535 0.65625 1.98535 1.95117v16.8857zM407.802 142.589v28.5439h4.5498v-28.5439h-4.5498zM456.466 219.612c1.2666 -1.16309 1.91699 -2.80859 1.91699 -4.96289v-15.3662
c0 -2.02051 -0.650391 -3.6123 -1.91699 -4.77539c-1.29785 -1.14453 -2.83301 -1.72559 -4.5498 -1.72559c-1.7793 0 -3.28711 0.581055 -4.58789 1.72559c-1.25684 1.16309 -1.94434 2.75488 -1.94434 4.77539v15.3662c0 2.1543 0.6875 3.7998 1.94434 4.96289
c1.30078 1.1543 2.80566 1.74512 4.58789 1.74512c1.71387 0 3.25195 -0.59082 4.5498 -1.74512zM453.867 215.503c0 1.30078 -0.65332 1.95508 -1.93555 1.95508c-1.33496 0 -1.94824 -0.650391 -1.94824 -1.95508v-16.8857c0 -1.29199 0.613281 -1.95117 1.94824 -1.95117
c1.28223 0 1.93555 0.65625 1.93555 1.95117v16.8857z" />
    <glyph glyph-name="150-telephone" unicode="&#xf195;" 
d="M411.501 -64c-21.3018 0 -47.0293 5.33789 -75.3047 16.0146c-62.0459 23.3857 -129.516 69.6055 -190.028 130.118c-60.5303 60.5137 -106.75 128.018 -130.153 190.046c-21.3018 56.4141 -21.3525 102.703 -0.171875 123.884
c3.04785 3.06543 6.16504 6.33789 9.36816 9.69531c19.3389 20.3379 41.708 43.6201 70.1562 42.1729c19.9756 -0.826172 39.3145 -13.2246 59.1348 -37.8506c58.4814 -72.7734 32.1338 -98.708 1.61914 -128.774l-5.38965 -5.33887
c-4.99414 -4.99316 -14.4658 -28.1377 73.3594 -115.911c28.6719 -28.6543 53.1074 -49.6289 72.6182 -62.3203c12.2959 -7.99023 34.2178 -20.0967 43.293 -11.0557l5.42383 5.47559c30.0332 30.4805 55.9844 56.7588 128.706 -1.7041
c24.6426 -19.8037 37.0068 -39.125 37.8506 -59.1182c1.18848 -28.9482 -21.8867 -50.8525 -42.2246 -70.1738c-3.35742 -3.20312 -6.62988 -6.30273 -9.67773 -9.33398c-10.5732 -10.5557 -27.3975 -15.8252 -48.5791 -15.8252zM93.3184 430.745
c-20.5791 0 -39.1768 -19.5625 -55.623 -36.8691c-3.30566 -3.46094 -6.50879 -6.83691 -9.67773 -9.98828c-15.7734 -15.7568 -14.1553 -57.2402 4.09863 -105.63c22.5586 -59.79 67.3838 -125.124 126.209 -183.967c58.8086 -58.8086 124.126 -103.633 183.933 -126.175
c48.4062 -18.3057 89.8564 -19.8721 105.63 -4.08105c3.15137 3.15137 6.52734 6.35449 9.98828 9.64355c17.6855 16.8066 37.7305 35.8525 36.8691 56.9824c-0.585938 14.5166 -11.1592 30.1357 -31.4277 46.4092c-60.6162 48.6992 -77.5439 31.5137 -105.647 3.03125
l-5.51074 -5.5625c-13.415 -13.4492 -35.25 -10.4355 -64.8525 8.78223c-20.5098 13.3457 -45.8926 35.0781 -75.4082 64.5938c-72.877 72.8428 -96.1943 117.41 -73.3594 140.278l5.47559 5.4248c28.5518 28.1035 45.79 45.0664 -2.94434 105.699
c-16.291 20.2344 -31.8926 30.8076 -46.4268 31.4102c-0.430664 0.0175781 -0.895508 0.0175781 -1.3252 0.0175781zM336.695 264.085c-2.2041 0 -4.4082 0.84375 -6.0957 2.51465c-3.3584 3.35742 -3.3584 8.81641 0 12.1748l166.694 166.694
c3.35742 3.35742 8.81641 3.35742 12.1748 0c3.35742 -3.3584 3.35742 -8.81738 0 -12.1748l-166.694 -166.694c-1.6709 -1.68848 -3.875 -2.51465 -6.0791 -2.51465zM464.161 264.085h-127.466c-4.75293 0 -8.61035 3.85742 -8.61035 8.61035v127.449
c0 4.75293 3.85742 8.61035 8.61035 8.61035s8.61035 -3.85742 8.61035 -8.61035v-118.839h118.855c4.75293 0 8.61035 -3.85742 8.61035 -8.61035s-3.85742 -8.61035 -8.61035 -8.61035z" />
    <glyph glyph-name="026-play-button" unicode="&#xf119;" 
d="M480.386 202.227c5.05859 -2.8584 7.58887 -6.26562 7.58887 -10.2227c0 -3.95215 -2.5293 -7.36621 -7.58887 -10.2285l-437.897 -243.353c-5.05469 -2.86035 -9.39844 -3.18359 -13.0254 -0.987305c-3.625 2.19824 -5.4375 6.1582 -5.4375 11.8779v485.384
c0 5.71484 1.81055 9.67188 5.4375 11.8682c3.62695 2.19824 7.9707 1.87012 13.0254 -0.987305z" />
    <glyph glyph-name="032-stocks-graphic-on-laptop-monitor" unicode="&#xf11f;" 
d="M46.0127 68.9883c-10.8574 0 -19.6865 8.83398 -19.6865 19.6865v243.47c0 10.8613 8.8291 19.6865 19.6865 19.6865h419.984c10.8574 0 19.6865 -8.8252 19.6865 -19.6865v-243.47c0 -10.8525 -8.8291 -19.6865 -19.6865 -19.6865h-419.984zM46.0127 332.145v-243.47
h419.999l-0.0146484 243.47h-419.984zM507.034 57.127c2.5791 0 4.71973 -1.97363 4.94141 -4.54785c0.162109 -1.77148 -0.458008 -3.51855 -1.74219 -4.92188c-13.1562 -14.3662 -200.007 -15.4883 -256.97 -15.4883c-63.4355 0 -122.978 1.2207 -167.646 3.4502
c-79.0469 3.9375 -82.5215 9.37598 -84.5986 12.6143c-1.18066 1.8457 -1.34375 4.03125 -0.4375 6c0.816406 1.76172 2.57324 2.89355 4.51758 2.89355h501.936zM419.694 270.613c8.45508 0 15.3311 -6.87988 15.3311 -15.3359
c0 -8.4502 -6.87109 -15.3252 -15.3262 -15.3252c-1.12207 0 -2.21484 0.137695 -3.27734 0.369141l-33.9355 -41.1992c0.595703 -1.63477 0.969727 -3.37207 0.969727 -5.20215c0 -8.45117 -6.875 -15.3262 -15.3262 -15.3262c-7.9043 0 -14.3613 6.05371 -15.168 13.7461
l-38.4434 19.2236c-2.62793 -2.11133 -5.9209 -3.43555 -9.54785 -3.43555c-1.98828 0 -3.85352 0.40918 -5.5957 1.09277l-37.7695 -34.2197c0.12793 -0.807617 0.246094 -1.61426 0.246094 -2.45117c0 -8.4502 -6.875 -15.3262 -15.3262 -15.3262
c-8.4502 0 -15.3252 6.87598 -15.3252 15.3262c0 0.625 0.107422 1.23047 0.186523 1.83594l-47.1641 42.8428c-1.78711 -0.733398 -3.73535 -1.15137 -5.7832 -1.15137c-5.49707 0 -10.2861 2.92773 -12.9932 7.28809l-59.3701 -4.73438
c-2.48047 -5.13281 -7.69727 -8.71094 -13.7656 -8.71094c-8.4502 0 -15.3262 6.875 -15.3262 15.3262c0 8.4502 6.87598 15.3262 15.3262 15.3262c5.45801 0 10.2275 -2.89453 12.9443 -7.20117l59.4824 4.74023c2.50098 5.0791 7.67773 8.6123 13.707 8.6123
c8.4502 0 15.3262 -6.875 15.3262 -15.3262c0 -0.910156 -0.118164 -1.78613 -0.270508 -2.65234l46.6084 -42.3311c1.96289 0.915039 4.12402 1.46191 6.42188 1.46191c2.11719 0 4.13477 -0.433594 5.9707 -1.21094l37.4336 33.9297
c-0.186523 0.930664 -0.294922 1.88477 -0.294922 2.86426c0 8.45117 6.875 15.3262 15.3262 15.3262c7.8252 0 14.2188 -5.9209 15.1436 -13.5049l38.6396 -19.3223c2.59863 2.03223 5.82812 3.29688 9.37598 3.29688c1.11719 0 2.20996 -0.137695 3.26855 -0.369141
l33.9395 41.2148c-0.585938 1.62402 -0.959961 3.36133 -0.959961 5.18652c0 8.45117 6.87109 15.3262 15.3213 15.3262zM92.3105 217.308c4.38477 0 7.94336 3.55762 7.94336 7.94336c0 4.38477 -3.55859 7.94336 -7.94336 7.94336s-7.94336 -3.55859 -7.94336 -7.94336
c0 -4.38574 3.55371 -7.94336 7.94336 -7.94336zM178.439 223.459c4.38574 0 7.94336 3.55859 7.94336 7.94336c0 4.38574 -3.55762 7.94434 -7.94336 7.94434c-4.38477 0 -7.94336 -3.55859 -7.94336 -7.94434c0 -4.38477 3.55371 -7.94336 7.94336 -7.94336z
M246.525 164.606c4.38574 0 7.94434 3.55762 7.94434 7.93848c0 4.38477 -3.55859 7.94824 -7.94434 7.94824c-4.38477 0 -7.94336 -3.55859 -7.94336 -7.94824c0 -4.38086 3.55371 -7.93848 7.94336 -7.93848zM304.971 215.511c4.38477 0 7.94336 3.55859 7.94336 7.94336
c0 4.38574 -3.56348 7.94336 -7.94336 7.94336c-4.38086 0 -7.94336 -3.55762 -7.94336 -7.94336c0 -4.38477 3.55273 -7.94336 7.94336 -7.94336zM368.13 185.98c4.38574 0 7.94336 3.55859 7.94336 7.94434c0 4.38477 -3.5625 7.94336 -7.94336 7.94336
c-4.37988 0 -7.94336 -3.55859 -7.94336 -7.94336c0 -4.38086 3.55371 -7.94434 7.94336 -7.94434zM419.694 247.339c4.38965 0 7.94336 3.55859 7.94336 7.94336c0 4.38574 -3.55371 7.94434 -7.94336 7.94434c-4.37988 0 -7.93848 -3.55859 -7.93848 -7.94434
c0 -4.38477 3.54883 -7.94336 7.93848 -7.94336z" />
    <glyph glyph-name="186-group-2" unicode="&#xf1b9;" 
d="M262.809 -46.9297c1.86133 -1.86035 2.93164 -4.44043 2.93164 -7.07031s-1.07129 -5.20996 -2.93164 -7.07031c-1.8584 -1.85938 -4.43848 -2.92969 -7.06836 -2.92969c-2.63086 0 -5.21094 1.07031 -7.07031 2.92969
c-1.86133 1.86035 -2.92969 4.44043 -2.92969 7.07031s1.06934 5.20996 2.92969 7.07031c1.85938 1.85938 4.43945 2.92969 7.07031 2.92969c2.62988 0 5.20996 -1.07031 7.06836 -2.92969zM458.56 120.929c31.4648 -7.51562 53.4404 -35.3584 53.4404 -67.708v-67.2207
c0 -5.52344 -4.47754 -10 -10 -10h-80.167v-30c0 -5.52344 -4.47754 -10 -10 -10h-113.832c-5.52246 0 -10 4.47656 -10 10s4.47754 10 10 10h48.9746v44.0117c0 5.52344 4.47852 10 10 10c5.52246 0 10 -4.47656 10 -10v-44.0117h34.8574v26.0898
c-0.510742 1.20117 -0.794922 2.52344 -0.794922 3.91113s0.28418 2.70898 0.794922 3.91113v11.1592c0 33.9375 -23.0537 63.1484 -56.0654 71.0342l-49.04 11.7148l-31.6133 -71.8916c-1.59668 -3.63086 -5.18848 -5.97461 -9.1543 -5.97461h-0.000976562
c-3.96582 0 -7.55664 2.34473 -9.15332 5.97559l-31.6455 71.9961l-49.1836 -11.7861c-32.9805 -7.90234 -56.0146 -37.1074 -56.0146 -71.0215v-45.1182h35.0625v44.0117c0 5.52344 4.47754 10 10 10c5.52148 0 10 -4.47656 10 -10v-44.0117h44.6426
c5.52246 0 10 -4.47656 10 -10s-4.47754 -10 -10 -10h-109.704c-5.52148 0 -10 4.47656 -10 10v30h-79.9629c-5.52246 0 -10 4.47656 -10 10v67.2207c0 32.3496 21.9756 60.1924 53.4434 67.708l33.3574 7.96973v13.2314
c-18.5156 11.7021 -30.8477 32.3408 -30.8477 55.8184v37.2666c0 36.3926 29.6074 66 66.002 66c19.7158 0 37.4277 -8.7002 49.5322 -22.4502c10.5391 36.793 44.4814 63.7988 84.6152 63.7988h0.000976562c40.0693 0 73.9668 -26.9209 84.5645 -63.623
c12.1006 13.6484 29.748 22.2744 49.3799 22.2744c36.3945 0 66.002 -29.6064 66.002 -66v-37.2666c0 -23.4766 -12.332 -44.1152 -30.8477 -55.8184v-13.2314zM390.047 281.215c-20.873 0 -38.543 -13.9727 -44.1484 -33.0547
c18.7109 -10.7529 39.9414 -16.4258 61.5479 -16.4258h28.6025v1.00488v2.47559c0 25.3643 -20.6367 46 -46.002 46zM344.045 199.58v-1.63184c0 -25.3643 20.6367 -46 46.002 -46s46.002 20.6348 46.0029 45.999v13.7861h-28.6025
c-22.0107 0 -43.6836 5.06641 -63.3418 14.7344c0 0 -0.0253906 -25.8672 -0.0605469 -26.8877zM188.1 254.562v-8.77539h28.1396c22.4531 0 43.6006 9.87012 58.0205 27.0781c3.1377 3.74316 8.51953 4.67383 12.7305 2.19922l37.1152 -21.8057v1.30371
c0 37.4951 -30.5068 68 -68.0029 68s-68.0029 -30.5039 -68.0029 -68zM75.9512 232.738v-1.00488h28.6016c21.6074 0 42.8369 5.67383 61.5479 16.4258c-5.60449 19.083 -23.2744 33.0557 -44.1475 33.0557c-25.3652 0 -46.002 -20.6348 -46.002 -46v-2.47656z
M75.9512 197.948c0 -25.3643 20.6367 -46 46.002 -46s46.002 20.6348 46.002 46v28.5488c-19.6738 -9.6875 -41.3691 -14.7627 -63.4014 -14.7627h-28.6025v-13.7861zM89.9629 1.11816c0 21.9277 7.57129 42.3018 20.5098 58.376l-20.6875 49.5547l-31.6982 -7.57324
c-22.4248 -5.35645 -38.0869 -25.1992 -38.0869 -48.2549v-57.2207h20v44.4287c0 5.52344 4.47754 10 10 10s10 -4.47656 10 -10v-44.4287h29.9629v5.11816zM121.955 83.9062l15.1299 36.2266c-0.0302734 0.313477 -0.0595703 0.625977 -0.0595703 0.941406
c0 0.1875 0.00488281 0.375977 0.015625 0.563477v12.0703c-4.84961 -1.1377 -9.89648 -1.75977 -15.0879 -1.75977c-5.21484 0 -10.2852 0.626953 -15.1543 1.77441v-12.7178c0 -0.242188 -0.0136719 -0.480469 -0.03125 -0.719727zM161.317 91.5889l31.7109 7.59961
c-2.31934 0.945312 -4.71484 1.72461 -7.1748 2.31348l-31.7021 7.59668l-9.74023 -23.3213c5.35742 2.42773 11.001 4.39648 16.9062 5.81152zM210.953 112.432v14.7158c-14.1348 8.4834 -25.7061 20.8174 -33.2451 35.5469
c-5.27148 -8.30859 -12.3418 -15.3604 -20.667 -20.6074v-13.1152l33.4736 -8.02051c7.27246 -1.74219 14.1602 -4.625 20.4385 -8.51953zM280.933 97.5869v20.6406c-7.87793 -2.32031 -16.2109 -3.57227 -24.8311 -3.57227c-8.73535 0 -17.1768 1.28516 -25.1484 3.66699
v-20.624l25.0088 -56.8975zM256.103 134.654c36.7109 0 66.6992 29.2432 67.9434 65.6533v29.7891l-40.2207 23.6289c-17.8721 -17.8525 -42.0635 -27.9404 -67.5869 -27.9404h-28.1387v-23.1299c0 -37.4951 30.5059 -68 68.0029 -68.001zM300.933 126.959v-14.5996
c6.30957 3.92969 13.2363 6.83887 20.5527 8.5918l33.4736 8.02051v13.1152c-8.26465 5.21094 -15.2939 12.2002 -20.5537 20.4307c-7.59766 -14.7607 -19.249 -27.1035 -33.4717 -35.5586h-0.000976562zM350.414 91.5557
c5.99023 -1.43066 11.7109 -3.42969 17.1377 -5.90137l-9.7793 23.4258l-31.626 -7.57812c-2.52441 -0.604492 -4.98145 -1.41016 -7.35742 -2.38965zM374.894 119.984l15.0625 -36.0781l15.2676 36.5586c-0.00976562 0.179688 -0.0224609 0.359375 -0.0224609 0.541016
v12.7178c-4.86914 -1.14844 -9.93945 -1.77539 -15.1543 -1.77539c-5.19141 0 -10.2383 0.621094 -15.0879 1.75977v-12.3496c0.00292969 -0.09375 0.00390625 -0.1875 0.00390625 -0.280273c0 -0.366211 -0.0292969 -0.731445 -0.0693359 -1.09375zM492 -4v57.2207
c0 23.0557 -15.6621 42.8984 -38.0869 48.2549l-31.7754 7.5918l-20.7529 -49.6924c12.9023 -16.0596 20.4482 -36.4062 20.4482 -58.3047v-5.07031h30.167v44.4287c0 5.52344 4.47754 10 10 10s10 -4.47656 10 -10v-44.4287h20zM229.529 213.82
c1.87012 -1.86035 2.93066 -4.44043 2.93066 -7.07031s-1.06055 -5.20996 -2.93066 -7.07031c-1.85938 -1.85938 -4.42969 -2.92969 -7.06934 -2.92969c-2.62988 0 -5.20898 1.07031 -7.07031 2.92969c-1.86035 1.86035 -2.92969 4.44043 -2.92969 7.07031
s1.07031 5.20996 2.92969 7.07031c1.86035 1.85938 4.44043 2.92969 7.07031 2.92969s5.20996 -1.07031 7.06934 -2.92969zM296.399 213.82c1.86914 -1.86035 2.93066 -4.44043 2.93066 -7.07031s-1.06152 -5.20996 -2.93066 -7.07031
c-1.85938 -1.85938 -4.43945 -2.92969 -7.06934 -2.92969s-5.20898 1.07031 -7.07031 2.92969c-1.86035 1.86035 -2.92969 4.44043 -2.92969 7.07031s1.07031 5.20996 2.92969 7.07031c1.86035 1.85938 4.44043 2.92969 7.07031 2.92969s5.20996 -1.07031 7.06934 -2.92969z
M275.247 180.158c3.90527 -3.90527 3.90527 -10.2373 -0.000976562 -14.1436c-5.37793 -5.37793 -12.4414 -8.06543 -19.5049 -8.06543c-7.06445 0 -14.127 2.68848 -19.5049 8.06543c-3.90527 3.90625 -3.90527 10.2383 0 14.1436
c3.90625 3.90527 10.2363 3.90527 14.1426 0c2.95703 -2.95703 7.76855 -2.95703 10.7246 0c3.90723 3.90527 10.2373 3.90527 14.1436 0zM413.479 394c5.52246 0 10 -4.47656 10 -10s-4.47754 -10 -10 -10h-6.8584c-5.52246 0 -10 4.47656 -10 10s4.47754 10 10 10h6.8584z
M462 394c5.52246 0 10 -4.47656 10 -10s-4.47754 -10 -10 -10h-6.85938c-5.52246 0 -10 4.47656 -10 10s4.47852 10 10 10h6.85938zM434.311 373.169c5.52246 0 10 -4.47656 10 -10v-6.85938c0 -5.52246 -4.47754 -10 -10 -10s-10 4.47754 -10 10v6.85938
c0 5.52344 4.47852 10 10 10zM434.311 421.69c5.52246 0 10 -4.47754 10 -10v-6.85938c0 -5.52344 -4.47754 -10 -10 -10s-10 4.47656 -10 10v6.85938c0 5.52246 4.47852 10 10 10zM56.3018 394c5.52246 0 10 -4.47656 10 -10s-4.47754 -10 -10 -10h-6.85742
c-5.52246 0 -10 4.47656 -10 10s4.47754 10 10 10h6.85742zM104.823 394c5.52148 0 10 -4.47656 10 -10s-4.47852 -10 -10 -10h-6.8584c-5.52246 0 -10 4.47656 -10 10s4.47852 10 10 10h6.8584zM77.1338 373.169c5.52246 0 10 -4.47656 10 -10v-6.85938
c0 -5.52246 -4.47754 -10 -10 -10s-10 4.47754 -10 10v6.85938c0 5.52344 4.47852 10 10 10zM77.1338 421.69c5.52246 0 10 -4.47754 10 -10v-6.85938c0 -5.52344 -4.47754 -10 -10 -10s-10 4.47656 -10 10v6.85938c0 5.52246 4.47852 10 10 10zM256 409.913
c5.52246 0 10 -4.47754 10 -10v-26.3105c0 -5.52246 -4.47754 -10 -10 -10s-10 4.47754 -10 10v26.3105c0 5.52246 4.47754 10 10 10zM263.069 445.07c1.86035 -1.86035 2.93066 -4.44043 2.93066 -7.07031s-1.07031 -5.20996 -2.93066 -7.07031
c-1.85938 -1.85938 -4.43945 -2.92969 -7.06934 -2.92969s-5.20898 1.07031 -7.07031 2.92969c-1.86035 1.86035 -2.92969 4.44043 -2.92969 7.07031s1.06934 5.20996 2.92969 7.07031c1.86035 1.85938 4.44043 2.92969 7.07031 2.92969s5.20996 -1.07031 7.06934 -2.92969z
M220.955 407.881c3.90527 -3.90625 3.90527 -10.2383 0 -14.1426c-1.95312 -1.95312 -4.51172 -2.92969 -7.07129 -2.92969c-2.55859 0 -5.11816 0.976562 -7.07031 2.92969l-14.6357 14.6338c-3.9043 3.90625 -3.9043 10.2383 0 14.1426
c3.90723 3.90527 10.2373 3.90527 14.1436 0zM319.82 423.065c3.9043 -3.90625 3.9043 -10.2383 0 -14.1436l-15.123 -15.123c-1.95312 -1.95312 -4.51172 -2.92871 -7.07129 -2.92871s-5.11816 0.975586 -7.07227 2.92871c-3.9043 3.90625 -3.9043 10.2383 0 14.1436
l15.123 15.123c3.90723 3.9043 10.2373 3.9043 14.1436 0z" />
    <glyph glyph-name="098-substract" unicode="&#xf161;" 
d="M0 179.81v24.3809h512v-24.3809h-512z" />
    <glyph glyph-name="105-cancel" unicode="&#xf168;" 
d="M437.01 373.01c48.377 -48.377 74.9902 -112.592 74.9902 -181.01s-26.6133 -132.633 -74.9902 -181.01s-112.592 -74.9902 -181.01 -74.9902s-132.633 26.6133 -181.01 74.9902s-74.9902 112.592 -74.9902 181.01s26.6133 132.633 74.9902 181.01
s112.592 74.9902 181.01 74.9902s132.633 -26.6133 181.01 -74.9902zM416.431 31.5693c88.458 88.458 88.458 232.403 0 320.861c-42.8818 42.8828 -99.8789 66.4785 -160.431 66.4785s-117.549 -23.5957 -160.431 -66.4785c-88.458 -88.458 -88.458 -232.403 0 -320.861
c42.8818 -42.8828 99.8789 -66.4785 160.431 -66.4785s117.549 23.5957 160.431 66.4785zM368.808 304.808c5.71094 -5.70996 5.71094 -14.8682 0 -20.5791l-92.2285 -92.2285l92.0137 -92.2285c5.70996 -5.71094 5.70996 -14.8691 0 -20.5791
c-2.80176 -2.90918 -6.46484 -4.31055 -10.2363 -4.31055c-3.66309 0 -7.43359 1.50879 -10.2354 4.31055l-92.2285 92.2285l-92.2295 -92.2285c-2.80078 -2.90918 -6.57227 -4.31055 -10.2354 -4.31055s-7.43457 1.50879 -10.2354 4.31055
c-5.71094 5.70996 -5.71094 14.8682 0 20.5791l92.2285 92.2285l-92.2285 92.2285c-5.71094 5.71094 -5.71094 14.8691 0 20.5791c5.70996 5.71094 14.8682 5.71094 20.5791 0l92.2285 -92.2285l92.2285 92.2285c5.71094 5.71094 14.8691 5.71094 20.5791 0z" />
    <glyph glyph-name="165-search-2" unicode="&#xf1a4;" 
d="M508.875 -30.709c4.16602 -4.16504 4.16602 -10.9189 0.000976562 -15.085l-15.0811 -15.082c-4.16699 -4.16504 -10.9189 -4.16504 -15.0859 0l-148.732 148.732c-34.8271 -28.209 -79.1035 -45.1914 -127.31 -45.1914c-111.75 0 -202.667 90.917 -202.667 202.668
c0 111.75 90.916 202.667 202.666 202.667c111.751 0 202.668 -90.917 202.668 -202.667c0 -48.2061 -16.9814 -92.4824 -45.1914 -127.31zM202.667 85.332c88.2295 0 160.001 71.7715 160.001 160.001c0 88.2285 -71.7715 160 -160.001 160
c-88.2285 0 -160 -71.7715 -160 -160c0 -88.2295 71.7715 -160.001 160 -160.001z" />
    <glyph glyph-name="061-money-bag" unicode="&#xf13c;" 
d="M273.244 126.643c24.6953 0 44.8135 -20.1182 44.8135 -44.8135c0 -24.4814 -19.6924 -44.4932 -44.1748 -44.8125h-0.319336h-2.12891v-18.2021c0 -7.02539 -5.74805 -12.7734 -12.7734 -12.7734s-12.7734 5.74805 -12.7734 12.7734v18.2021h-25.1211
c-7.02539 0 -12.7734 5.74805 -12.7734 12.7734s5.74805 12.7734 12.7734 12.7734h52.4775c10.6445 0 19.2666 8.62109 19.2666 19.2656s-8.62207 19.2666 -19.2666 19.2666h-29.2725c-24.6953 0 -44.8135 20.1182 -44.8135 44.8135s20.1182 44.8135 44.8135 44.8135
h1.80957v17.7764c0 7.02539 5.74805 12.7734 12.7734 12.7734s12.7734 -5.74805 12.7734 -12.7734v-17.7764h24.1631c7.02539 0 12.7734 -5.74805 12.7734 -12.7734s-5.74805 -12.7734 -12.7734 -12.7734h-51.5195c-10.6445 0 -19.2666 -8.62207 -19.2666 -19.2666
s8.62207 -19.2666 19.2666 -19.2666h29.2725zM450.581 155.596c16.8184 -38.8525 25.334 -79.4082 25.334 -120.495c0 -54.6064 -44.4941 -99.1006 -99.0996 -99.1006h-241.631c-54.6055 0 -99.0996 44.4941 -99.0996 99.1006c0 41.0869 8.51562 81.6426 25.334 120.495
c13.4121 30.8691 32.04 60.7803 55.3516 88.7754c27.7812 33.3174 55.457 55.8838 69.9336 66.6348l-58.5449 88.4551c-3.29883 5.00293 -2.66016 11.709 1.49023 15.9668c19.9053 20.4375 40.2363 30.0176 64.0801 30.0176c18.8408 0 38.3203 -5.74805 63.6543 -15.0088
c1.91602 -0.745117 3.83203 -1.06445 6.06738 -1.06445c7.34473 0 16.3926 3.83203 25.9727 7.77051c12.1348 5.10938 26.0791 10.8574 41.3008 10.8574c16.6055 0 31.5078 -6.70605 45.5586 -20.4375c4.15137 -3.93848 5.00293 -10.1123 2.3418 -15.1152l-54.2871 -100.696
c14.3701 -10.5381 42.5781 -33.3174 70.8916 -67.3799c23.418 -27.9951 41.9395 -57.9062 55.3516 -88.7754zM155.409 404.783l55.6709 -84.0918h88.9883l51.0938 94.9492c-8.72852 6.17383 -15.6475 7.02539 -20.5439 7.02539
c-10.1123 0 -20.5439 -4.36426 -31.5078 -8.94141c-11.3896 -4.79004 -23.3115 -9.68652 -35.7656 -9.68652c-5.10938 0 -10.1123 0.851562 -14.7959 2.55469c-22.6729 8.40918 -39.7041 13.5186 -54.8193 13.5186c-14.1572 0 -25.9727 -4.68359 -38.3203 -15.3281z
M376.815 -38.4531c40.5547 0 73.5527 32.998 73.3398 73.5537c0 68.3369 -24.9082 132.949 -74.1914 192.346c-31.082 37.5752 -62.5898 60.9932 -72.2764 67.6992h-95.5879c-9.58008 -6.8125 -41.1943 -30.124 -72.2764 -67.6992
c-49.1768 -59.3965 -74.1914 -124.115 -74.1914 -192.346c0 -40.5557 32.998 -73.5537 73.5527 -73.5537h241.631z" />
    <glyph glyph-name="140-multi-tab" unicode="&#xf18b;" 
d="M501.581 448c5.75293 0 10.4189 -4.66602 10.4189 -10.4189v-419.245c0 -5.75293 -4.66602 -10.4189 -10.4189 -10.4189h-30.2129c-5.75391 0 -10.4199 4.66602 -10.4199 10.4189s4.66602 10.4199 10.4199 10.4199h19.793v398.405h-398.405v-19.793
c0 -5.75391 -4.66699 -10.4199 -10.4199 -10.4199s-10.4189 4.66602 -10.4189 10.4199v30.2129c0 5.75293 4.66602 10.4189 10.4189 10.4189h419.245zM429.664 376.083c5.75293 0 10.4189 -4.66602 10.4189 -10.4189v-419.245
c0 -5.75293 -4.66602 -10.4189 -10.4189 -10.4189h-419.245c-5.75293 0 -10.4189 4.66602 -10.4189 10.4189v419.245c0 5.75293 4.66602 10.4189 10.4189 10.4189h419.245zM419.244 -43.1611v398.405h-398.405v-398.405h398.405z" />
    <glyph glyph-name="017-tablet" unicode="&#xf110;" 
d="M408.543 448c19.1885 0 34.7617 -15.5586 34.7314 -34.7773v-442.461c0 -19.1729 -15.5586 -34.7617 -34.7314 -34.7617h-305.116c-19.2334 0 -34.7158 15.6035 -34.7158 34.7617v442.461c0 19.2188 15.4824 34.7773 34.7158 34.7773h305.116zM256 -50.9717
c11.3867 0 20.6494 9.23242 20.6494 20.6338c0 11.417 -9.2627 20.665 -20.6494 20.665c-11.417 0 -20.6494 -9.24805 -20.6494 -20.665c0 -11.4014 9.23242 -20.6338 20.6494 -20.6338zM408.136 8.41602v397.804h-304.271v-397.804h304.271z" />
    <glyph glyph-name="099-phone-call" unicode="&#xf162;" 
d="M411.442 -63.9658c-21.2998 0 -47.0244 5.33789 -75.2979 15.9961c-62.0391 23.4004 -129.502 69.6162 -190.009 130.123c-60.5068 60.5059 -106.722 127.986 -130.122 190.043c-21.2998 56.3916 -21.3516 102.676 -0.172852 123.854
c3.06543 3.06543 6.18164 6.33691 9.38477 9.69434c19.3369 20.3184 41.7041 43.4082 70.1318 42.1514c19.9736 -0.826172 39.3105 -13.2236 59.1465 -37.8467c58.4746 -72.749 32.1133 -98.6807 1.60156 -128.745l-5.40723 -5.33691
c-4.99316 -4.99414 -14.4463 -28.1016 73.3525 -115.883c28.6865 -28.6689 53.1025 -49.6416 72.6113 -62.332c12.3115 -7.98926 34.2822 -20.043 43.2881 -11.0371l5.42383 5.47559c30.0293 30.4775 55.9609 56.7529 128.693 -1.70508
c24.6396 -19.8008 37.0205 -39.1377 37.8467 -59.1289c1.1875 -28.9619 -21.8848 -50.8643 -42.2373 -70.1836c-3.34082 -3.18555 -6.6123 -6.26758 -9.64258 -9.29785c-10.5723 -10.5557 -27.3779 -15.8418 -48.5918 -15.8418zM93.3086 430.747
c-20.5596 0 -39.1553 -19.5605 -55.5996 -36.8486c-3.32324 -3.47754 -6.54297 -6.87012 -9.69434 -10.0215c-15.7725 -15.7549 -14.1533 -57.2178 4.09863 -105.619c22.5566 -59.8008 67.377 -125.129 126.196 -183.948s124.13 -103.623 183.913 -126.18
c48.4023 -18.2686 89.8652 -19.8525 105.638 -4.06348c3.15039 3.13379 6.50879 6.33691 9.95215 9.6084c17.7012 16.8223 37.7607 35.8662 36.8994 57.0107c-0.602539 14.5156 -11.1748 30.1328 -31.4414 46.4053c-60.6094 48.6943 -77.5361 31.4756 -105.637 3.03027
l-5.50977 -5.56152c-13.3789 -13.4482 -35.1953 -10.5039 -64.8457 8.78125c-20.4912 13.3271 -45.8711 35.0752 -75.4014 64.5879v0c-72.8525 72.8525 -96.167 117.415 -73.3516 140.247l5.49219 5.44043c28.5488 28.1016 45.7676 45.0615 -2.94434 105.672
c-16.2891 20.2324 -31.9062 30.8047 -46.4219 31.4238c-0.447266 0.0175781 -0.912109 0.0351562 -1.34277 0.0351562zM414.456 236.382c-1.08496 0 -2.16992 0.206055 -3.2373 0.636719c-4.4082 1.79102 -6.54297 6.80176 -4.73535 11.1924
c10.9512 26.999 4.68359 57.7686 -15.9102 78.3799c-21.1621 21.1611 -53.6885 27.0332 -80.9795 14.7734c-4.28809 -1.94531 -9.43652 -0.0517578 -11.3818 4.28711c-1.96289 4.33984 -0.0517578 9.43652 4.28711 11.3818c33.7666 15.29 74.041 7.9375 100.248 -18.2861
c25.501 -25.501 33.2324 -63.5723 19.6807 -97.0107c-1.34277 -3.30566 -4.58008 -5.35449 -7.97168 -5.35449zM491.32 205.181c-1.08496 0 -2.16992 0.207031 -3.2373 0.637695c-4.4248 1.79004 -6.54297 6.80078 -4.73535 11.1924
c23.5039 57.9756 10.125 124.009 -34.1104 168.244c-45.4229 45.4229 -115.279 58.165 -173.823 31.6992c-4.33887 -1.89355 -9.43555 -0.0341797 -11.3984 4.30469c-1.94629 4.35645 -0.0351562 9.45312 4.30469 11.417c65.0352 29.375 142.623 15.2383 193.091 -35.2305
c49.1426 -49.1416 64.0195 -122.494 37.8818 -186.893c-1.34375 -3.33984 -4.58105 -5.37207 -7.97266 -5.37207z" />
    <glyph glyph-name="160-next-1" unicode="&#xf19f;" 
d="M371.578 332.422l140.422 -140.421l-140.422 -140.423l-22.8066 22.8076l101.487 101.486h-450.259v32.2549h450.259l-101.487 101.487z" />
    <glyph glyph-name="188-lecture" unicode="&#xf1bb;" 
d="M213.333 89.5996h17.0674v-17.0664h-17.0674v17.0664zM213.333 89.5996zM213.333 46.9336h17.0674v-17.0674h-17.0674v17.0674zM213.333 46.9336zM221.866 285.866v-8.5332h-17.0664v8.5332c0 14.1377 11.4629 25.6006 25.6006 25.6006
c14.1367 0 25.5996 -11.4629 25.5996 -25.6006v-8.5332h-17.0664v8.5332c0 4.71289 -3.82129 8.53418 -8.5332 8.53418c-4.71289 0 -8.53418 -3.82129 -8.53418 -8.53418zM221.866 285.866zM153.6 277.333v8.5332c0 4.71289 -3.82031 8.53418 -8.5332 8.53418
c-4.71191 0 -8.5332 -3.82129 -8.5332 -8.53418v-8.5332h-17.0664v8.5332c0 14.1377 11.4619 25.6006 25.5996 25.6006s25.6006 -11.4629 25.6006 -25.6006v-8.5332h-17.0674zM153.6 277.333zM221.866 226.134c0 -18.8506 -15.2832 -34.1338 -34.1328 -34.1338
s-34.1338 15.2832 -34.1338 34.1338v17.0664h68.2666v-17.0664zM170.667 226.134c0 -9.42578 7.6416 -17.0674 17.0664 -17.0674s17.0664 7.6416 17.0664 17.0674h-34.1328zM170.667 226.134zM358.4 115.2v-110.934h153.6v-68.2666h-512v68.2666h17.0664v110.934
c0.0166016 26.1748 17.0713 49.291 42.0791 57.0293c-5.22461 14.5576 -7.91211 29.9043 -7.94531 45.3701v93.8672c0 75.4043 61.1289 136.533 136.533 136.533s136.533 -61.1289 136.533 -136.533v-93.8672c-0.0332031 -15.4658 -2.7207 -30.8125 -7.94531 -45.3701
c25.0078 -7.73828 42.0625 -30.8545 42.0791 -57.0293zM341.333 115.2c-0.0166016 21.5703 -16.1289 39.7373 -37.5459 42.3252c-1.69922 0.21582 -3.4082 0.329102 -5.12012 0.34082h-76.8008v-17.0664c0 -2.1416 -0.204102 -4.2793 -0.603516 -6.38281
c-0.128906 -0.675781 -0.341797 -1.30469 -0.512695 -1.9707c-0.333008 -1.37109 -0.753906 -2.7168 -1.25391 -4.03809c-0.291992 -0.733398 -0.625 -1.4248 -0.958984 -2.125c-0.553711 -1.1709 -1.1748 -2.3125 -1.8584 -3.41211
c-0.4375 -0.666992 -0.829102 -1.3125 -1.28711 -1.94629c-0.795898 -1.07031 -1.65039 -2.0918 -2.5625 -3.0625c-0.487305 -0.529297 -0.9375 -1.0752 -1.45801 -1.5791c-1.15039 -1.0918 -2.37109 -2.09961 -3.66309 -3.02051
c-0.366211 -0.291992 -0.691406 -0.604492 -1.06641 -0.854492c-1.69531 -1.125 -3.4873 -2.09961 -5.3584 -2.9082c-0.537109 -0.229492 -1.09961 -0.366211 -1.64551 -0.571289c-1.10059 -0.454102 -2.22949 -0.845703 -3.37109 -1.17871v-103.483h93.8672v85.333h17.0664
v-85.333h34.1328v110.934zM170.667 157.866v-17.0664c0 -9.4248 7.6416 -17.0664 17.0664 -17.0664s17.0664 7.6416 17.0664 17.0664v17.0664h-34.1328zM102.4 260.267c0 -47.1289 38.2041 -85.333 85.333 -85.333s85.333 38.2041 85.333 85.333v68.2666h-8.5332
c-2.00391 0.00878906 -4.00781 0.133789 -6 0.375c-0.612305 0.0791016 -1.21191 0.1875 -1.81641 0.283203c-1.36719 0.212891 -2.7041 0.466797 -4.03809 0.783203c-0.662109 0.154297 -1.3125 0.325195 -1.96191 0.504883
c-1.33789 0.375 -2.61719 0.799805 -3.90039 1.2793c-0.537109 0.195312 -1.08301 0.375 -1.6123 0.586914c-1.75 0.716797 -3.45801 1.5293 -5.12109 2.43359c-0.195312 0.112305 -0.375 0.237305 -0.570312 0.349609c-1.47949 0.829102 -2.90039 1.72559 -4.2666 2.67969
c-0.504883 0.349609 -0.970703 0.724609 -1.45898 1.0918c-1.0498 0.787109 -2.07422 1.6416 -3.0625 2.49121c-0.478516 0.4375 -0.958008 0.854492 -1.41602 1.29199c-1.0166 0.961914 -1.97949 1.9707 -2.91309 3.0127
c-0.329102 0.375 -0.6875 0.732422 -1.01172 1.11621c-1.22168 1.44141 -2.3584 2.94629 -3.41309 4.5127l-0.104492 0.137695l-0.128906 -0.129883c-1.05371 -1.56641 -2.19141 -3.07031 -3.41211 -4.51172c-0.325195 -0.383789 -0.683594 -0.742188 -1.0166 -1.11719
c-0.9375 -1.04199 -1.8916 -2.0498 -2.9082 -3.0127c-0.47168 -0.4375 -0.9375 -0.870117 -1.41699 -1.29102c-0.992188 -0.871094 -2.0127 -1.69629 -3.0625 -2.49219c-0.487305 -0.366211 -0.966797 -0.741211 -1.45801 -1.0918
c-1.38379 -0.961914 -2.80859 -1.85352 -4.2666 -2.67871c-0.200195 -0.108398 -0.379883 -0.237305 -0.575195 -0.350586c-1.6582 -0.90332 -3.36719 -1.71582 -5.11719 -2.42871c-0.529297 -0.216797 -1.0752 -0.395508 -1.6123 -0.591797
c-1.2832 -0.474609 -2.5791 -0.904297 -3.90039 -1.2793c-0.649414 -0.178711 -1.30762 -0.349609 -1.96191 -0.503906c-1.3252 -0.325195 -2.6709 -0.571289 -4.03809 -0.783203c-0.607422 -0.0957031 -1.2041 -0.212891 -1.81641 -0.283203
c-1.9834 -0.242188 -3.97852 -0.371094 -5.97461 -0.383789h-76.7998v-68.2666zM68.2666 311.467v-93.8672c-0.0166016 -14.5996 2.6709 -29.0791 7.92969 -42.6992h54.9707c-0.0957031 0.0576172 -0.179688 0.136719 -0.275391 0.204102
c-3.12891 2.1084 -6.1377 4.38672 -9.0166 6.82422c-0.795898 0.65918 -1.52051 1.38379 -2.28711 2.0752c-2.06738 1.85059 -4.0625 3.75488 -5.97559 5.75879c-0.904297 0.941406 -1.75781 1.89551 -2.6123 2.87109c-1.72949 1.9707 -3.37891 4 -4.95801 6.09082
c-0.742188 0.97168 -1.49219 1.92969 -2.19238 2.92578c-1.92871 2.75781 -3.71582 5.60352 -5.36621 8.5332c-0.212891 0.375 -0.470703 0.724609 -0.674805 1.1123c-1.8125 3.3418 -3.4375 6.78711 -4.8623 10.3164c-0.429688 1.03809 -0.771484 2.10449 -1.16309 3.16309
c-0.9375 2.58691 -1.80859 5.19922 -2.55859 7.87891c-0.358398 1.30371 -0.691406 2.56641 -1 3.8623c-0.636719 2.6709 -1.1416 5.37891 -1.57031 8.11719c-0.1875 1.21191 -0.408203 2.4082 -0.554688 3.63672c-0.487305 3.97949 -0.745117 7.9834 -0.766602 11.9961
v85.333h93.8672c18.8496 0 34.1328 15.2842 34.1328 34.1338h17.0674c0 -18.8496 15.2832 -34.1338 34.1328 -34.1338h25.6006v-85.333c-0.0292969 -4.00391 -0.291992 -8 -0.78418 -11.9707c-0.145508 -1.2207 -0.366211 -2.4248 -0.557617 -3.6377
c-0.425781 -2.72949 -0.9375 -5.43359 -1.56738 -8.0957c-0.307617 -1.3252 -0.641602 -2.5957 -1 -3.88379c-0.733398 -2.66992 -1.60352 -5.30762 -2.55762 -7.86621c-0.396484 -1.05859 -0.738281 -2.125 -1.16309 -3.16699
c-1.42871 -3.5293 -3.0498 -6.9707 -4.8623 -10.3164c-0.204102 -0.375 -0.462891 -0.733398 -0.674805 -1.1123c-1.6543 -2.94629 -3.44629 -5.78809 -5.36719 -8.5332c-0.699219 -0.996094 -1.45801 -1.9541 -2.19531 -2.9248
c-1.54199 -2.0918 -3.25 -4.12109 -4.9541 -6.08398c-0.854492 -0.974609 -1.75879 -1.9375 -2.6123 -2.875c-1.91309 -2.00781 -3.90918 -3.9082 -5.97559 -5.75391c-0.766602 -0.691406 -1.49121 -1.41699 -2.28711 -2.0791
c-2.87891 -2.44141 -5.8877 -4.7207 -9.0166 -6.8291c-0.0957031 -0.0585938 -0.179688 -0.137695 -0.275391 -0.204102h54.9873c5.25488 13.6123 7.94238 28.0791 7.92969 42.666v93.8672c0 65.9795 -53.4873 119.467 -119.467 119.467
s-119.467 -53.4873 -119.467 -119.467zM34.1338 115.2v-110.934h34.1328v51.2002c0.0205078 17.1289 10.2666 32.5918 26.0332 39.2871c1.625 10.4004 7.95898 19.4668 17.1631 24.5752c5.04102 2.86719 10.7373 4.38379 16.5371 4.4043
c16.3418 -0.0126953 30.3838 -11.6084 33.4834 -27.6582c3.19531 -17.1377 -7.04199 -33.9297 -23.7422 -38.9414c-16.6953 -5.0127 -34.4873 3.3623 -41.2617 19.4287c-6.9668 -4.7666 -11.1338 -12.6582 -11.1465 -21.0957v-51.2002h93.9082v103.467
c-1.1416 0.333008 -2.2666 0.724609 -3.37012 1.17871c-0.545898 0.204102 -1.11719 0.341797 -1.64648 0.571289c-1.87012 0.808594 -3.66211 1.7793 -5.3584 2.9082c-0.375 0.275391 -0.699219 0.591797 -1.06641 0.854492
c-1.28711 0.920898 -2.5127 1.92871 -3.66211 3.02051c-0.521484 0.503906 -0.970703 1.0498 -1.45898 1.5791c-0.912109 0.970703 -1.7666 1.99219 -2.55762 3.0625c-0.4375 0.633789 -0.871094 1.2793 -1.29199 1.94629
c-0.683594 1.09961 -1.30371 2.24121 -1.8584 3.41211c-0.333008 0.708008 -0.666992 1.40039 -0.954102 2.125c-0.503906 1.32129 -0.920898 2.66699 -1.25391 4.03711c-0.163086 0.65918 -0.387695 1.2959 -0.512695 1.97168
c-0.420898 2.1084 -0.637695 4.25 -0.650391 6.39941v17.0664h-76.7998c-1.71191 -0.0117188 -3.4209 -0.125 -5.12109 -0.34082c-21.416 -2.58789 -37.5283 -20.7549 -37.5449 -42.3252zM113.296 98.1338h14.7041v-17.0674h-14.6963
c3.8418 -6.7002 11.7129 -9.9707 19.167 -7.9668c7.45801 2.00488 12.6289 8.7793 12.5957 16.5c-0.00390625 1.09668 -0.120117 2.1875 -0.341797 3.25879c-1.0791 5.3252 -4.625 9.81641 -9.55371 12.0996c-4.92969 2.2832 -10.6455 2.08398 -15.4043 -0.537109
c-2.6748 -1.4873 -4.9043 -3.6582 -6.4707 -6.28711zM494.934 -12.7998h-477.867v-34.1338h477.867v34.1338zM494.934 -12.7998zM477.866 379.733c18.8506 0 34.1338 -15.2832 34.1338 -34.1338v-51.1992c0 -18.8506 -15.2832 -34.1338 -34.1338 -34.1338h-102.399
c-9.4248 0 -17.0664 -7.6416 -17.0664 -17.0664c0 -4.71289 -3.82129 -8.5332 -8.53418 -8.5332c-4.71191 0 -8.5332 3.82031 -8.5332 8.5332v102.399c0 18.8506 15.2832 34.1338 34.1338 34.1338h102.399zM494.934 294.4v51.1992
c0 9.42578 -7.6416 17.0674 -17.0674 17.0674h-102.399c-9.4248 0 -17.0664 -7.6416 -17.0664 -17.0674v-72.8496c5.18262 3.00879 11.0703 4.5918 17.0664 4.58301h102.399c9.42578 0 17.0674 7.6416 17.0674 17.0674zM494.934 294.4zM418.134 328.533h17.0664v-17.0664
h-17.0664v17.0664zM418.134 328.533zM452.267 328.533h17.0664v-17.0664h-17.0664v17.0664zM452.267 328.533zM384 328.533h17.0664v-17.0664h-17.0664v17.0664zM384 328.533z" />
    <glyph glyph-name="047-exercise" unicode="&#xf12e;" 
d="M510.788 213.873c1.27051 -1.83203 1.5625 -4.17188 0.78125 -6.26074c-12.2021 -32.6035 -33.7471 -60.4922 -62.3047 -80.6523c-29.208 -20.6201 -63.6074 -31.5176 -99.4814 -31.5186h-0.000976562l-106.165 -0.0292969h-0.00195312l-162.99 0.00976562
c-44.457 0 -80.625 43.3262 -80.625 96.583c0 53.2549 36.168 96.582 80.625 96.582h272.469c0.0615234 0 2.50293 0.00976562 3.6543 -0.0292969c19.5996 -0.667969 37.9229 -11.2754 49.0127 -28.377c8.3252 -12.8359 13.1455 -27.9043 14.373 -43.3809h85.0635
c2.23047 0 4.32031 -1.09375 5.59082 -2.92676zM394.346 252.778c-8.67188 13.374 -22.9004 21.665 -38.0625 22.1816c-0.702148 0.0244141 -3.01758 0.0136719 -3.0459 0.0126953c-21.5479 -0.458984 -40.71 -13.7578 -52.7275 -33.8965
c0 0 49.1885 -0.0136719 49.3359 -0.0224609c6.8252 -0.0722656 13.543 -2.25098 19.5283 -6.42773c15.1943 -10.5869 20.3848 -33.1318 11.8125 -51.3232c-1.12207 -2.38184 -3.52051 -3.90234 -6.1543 -3.90234h-50.999
c2.31445 -11.0635 8.12207 -20.5664 16.248 -26.2314c9.21191 -6.4248 19.9355 -8.45117 30.207 -5.71094c11.9277 3.18457 22.3213 12.5596 28.5186 25.7207c11.8232 25.083 9.95117 57.0703 -4.66113 79.5996zM287.4 192.005
c0 -16.8184 4.08887 -32.5332 11.1113 -45.6738h28.6943c-10.1846 9.54688 -16.6973 23.7969 -17.7393 39.4121v0.00585938c-0.738281 11.0283 1.28418 21.9805 5.8457 31.6719c1.75195 3.71777 3.92578 7.08691 6.42676 10.0508h-27.8379
c-4.16602 -10.7842 -6.50098 -22.8193 -6.50098 -35.4668zM327.622 211.623c-2.70898 -5.75195 -4.27539 -12.0928 -4.62402 -18.6182h47.3711c3.36914 11.2744 -0.206055 24.4902 -8.77441 30.4609c-5.29102 3.69238 -11.4336 4.86133 -17.2959 3.29785
c-6.93652 -1.85156 -13.0166 -7.37012 -16.6768 -15.1406zM243.615 109.017l69.5498 0.0195312c-23.6309 16.9346 -39.3701 47.9326 -39.3701 82.9688c0 25.2529 8.06152 49.1289 22.7002 67.2314c4.98926 6.1709 10.5527 11.4443 16.5479 15.7461h-232.418
c-36.9541 0 -67.0205 -37.2236 -67.0205 -82.9775c0 -45.7549 30.0664 -82.9775 67.0205 -82.9775zM441.419 138.073c23.5908 16.6553 41.9883 39.0283 53.6416 65.1211h-74.7686c-0.699219 -12.3164 -3.66895 -24.5557 -8.97656 -35.8145
c-7.90723 -16.7939 -21.5098 -28.8467 -37.3174 -33.0684c-4.1748 -1.11426 -8.39844 -1.66504 -12.5957 -1.66504h-53.8311c11.1338 -13.502 26.0596 -22.1943 42.6904 -23.4561c0.256836 -0.0195312 1.65918 -0.111328 2.11133 -0.104492
c32.1113 0.511719 62.8496 10.4951 89.0459 28.9873z" />
    <glyph glyph-name="151-clock-2" unicode="&#xf196;" 
d="M256.023 -64c-141.179 0 -256.023 114.813 -256.023 255.945c0 141.194 114.845 256.055 256.023 256.055c141.163 0 255.992 -114.86 255.992 -256.055c-0.015625 -141.132 -114.845 -255.945 -255.992 -255.945zM256.023 432.417
c-132.577 0 -240.44 -107.879 -240.44 -240.472c0 -132.546 107.863 -240.378 240.44 -240.378c132.562 0 240.409 107.832 240.409 240.378c-0.015625 132.593 -107.848 240.472 -240.409 240.472zM330.431 94.2578c-2.24414 0 -4.45703 0.96582 -5.99902 2.83594
l-74.4072 89.9121c-1.15332 1.38672 -1.79199 3.14746 -1.79199 4.95508v149.392c0 4.30078 3.49023 7.79102 7.79102 7.79102s7.79102 -3.49023 7.79102 -7.79102v-146.603l72.6152 -87.7461c2.75879 -3.30273 2.27539 -8.21191 -1.02832 -10.9541
c-1.44922 -1.2002 -3.22559 -1.79199 -4.9707 -1.79199z" />
    <glyph glyph-name="016-first-aid-kit" unicode="&#xf10f;" 
d="M469.635 319.568c23.3604 0 42.3652 -19.0068 42.3643 -42.3662v-257.385c0 -23.3604 -19.0049 -42.3652 -42.3652 -42.3652h-427.269c-23.3604 0 -42.3652 19.0049 -42.3652 42.3652v257.385c0 23.3594 19.0049 42.3662 42.3652 42.3652h109.604v26.8066
c0 33.1807 26.9951 60.1748 60.1748 60.1748h87.7139c33.1797 0 60.1748 -26.9941 60.1748 -60.1748v-26.8057h109.603zM172.367 346.373v-26.8066h167.267v26.8066c0 21.9326 -17.8438 39.7773 -39.7764 39.7773h-87.7139c-21.9326 0 -39.7764 -17.8447 -39.7764 -39.7773z
M491.602 19.8174h-0.000976562v257.385c0 12.1133 -9.85352 21.9668 -21.9668 21.9668h-427.269c-12.1133 0 -21.9668 -9.85352 -21.9668 -21.9668v-257.385c0 -12.1133 9.85352 -21.9678 21.9668 -21.9678h427.27c12.1133 0 21.9668 9.85449 21.9668 21.9678z
M369.211 196.775c5.63184 0 10.1992 -4.56641 10.1992 -10.2002v-78.9043c0 -5.63281 -4.56738 -10.1992 -10.1992 -10.1992h-63.5596v-63.5586c0 -5.63281 -4.56738 -10.1992 -10.1992 -10.1992h-78.9043c-5.63184 0 -10.1992 4.56641 -10.1992 10.1992v63.5596h-63.5586
c-5.63184 0 -10.1992 4.56641 -10.1992 10.1992v78.9043c0 5.63281 4.56738 10.1992 10.1992 10.1992h63.5596v63.5586c0 5.63281 4.56738 10.1992 10.1992 10.1992h78.9043c5.63184 0 10.1992 -4.56641 10.1992 -10.1992v-63.5586h63.5586zM359.012 117.87v58.5068
h-63.5596c-5.63184 0 -10.1992 4.56641 -10.1992 10.1992v63.5586h-58.5059v-63.5596c0 -5.63281 -4.56738 -10.1992 -10.1992 -10.1992h-63.5586v-58.5059h63.5596c5.63184 0 10.1992 -4.56641 10.1992 -10.1992v-63.5586h58.5059v63.5586
c0 5.63281 4.56738 10.1992 10.1992 10.1992h63.5586zM159.108 285.833c5.63184 0 10.1982 -4.56738 10.1973 -10.1992c0 -5.63281 -4.56641 -10.1992 -10.1982 -10.1992h-71.3945c-5.63184 0 -10.1992 4.56641 -10.1992 10.1992s4.56738 10.1992 10.1992 10.1992h71.3955z
M52.0156 285.833c5.63281 0 10.1992 -4.56738 10.1992 -10.1992c0 -5.63281 -4.56641 -10.1992 -10.1992 -10.1992h-5.09961c-5.63184 0 -10.1992 4.56641 -10.1992 10.1992s4.56738 10.1992 10.1992 10.1992h5.09961z" />
    <glyph glyph-name="167-partnership" unicode="&#xf1a6;" 
d="M478.101 163.767c19.6377 -3.58496 33.8994 -20.6621 33.8994 -40.6211v-129.339h-512v129.339c0 19.959 14.2617 37.0361 33.8916 40.6211l56.9473 10.3545v15.9395c-8.82715 7.09277 -15.7822 16.3906 -20.04 27.0684
c-21.0928 1.82715 -37.7666 19.375 -37.7666 40.9355v52.8027c0 52.8428 43 95.8428 95.8428 95.8428c25.6084 0 49.6738 -9.96777 67.7822 -28.0771l6.06836 -6.06836c17.1289 -6.59277 28.5 -23.0244 28.5 -41.5156v-72.9844
c0 -21.5605 -16.6729 -39.1084 -37.7656 -40.9355c-4.2666 -10.6689 -11.2139 -19.9756 -20.041 -27.0684v-15.9395l56.9316 -10.3545c10.6289 -1.93164 19.5732 -7.90332 25.6416 -16.0605c6.06836 8.15723 15.0117 14.1201 25.6406 16.0605l56.9482 10.3545v15.9395
c-8.82715 7.09277 -15.7822 16.3906 -20.041 27.0684c-21.0928 1.82715 -37.7656 19.375 -37.7656 40.9355v41.29c0 54.6455 44.4512 99.0967 99.0967 99.0967s99.0967 -44.4512 99.0967 -99.0967v-41.29c0 -21.5605 -16.6738 -39.1084 -37.7666 -40.9355
c-4.26562 -10.6689 -11.2129 -19.9756 -20.04 -27.0684v-15.9395zM387.544 54.4434l-6.41113 38.46h-2.52441l-6.41113 -38.46l7.67383 -7.66895zM344.774 158.456l-5.82324 -1.05664l5.45996 -32.7344l21.9756 17.5811zM383.71 109.419l8.42285 12.6416l-12.2617 9.81445
l-12.2705 -9.81445l8.43164 -12.6416h7.67773zM393.354 142.246l21.9766 -17.5811l5.45898 32.7344l-5.82227 1.05664zM445.581 234.701c9.76953 3.32324 16.8701 12.4805 16.8701 23.3633c0 10.75 -6.92676 19.835 -16.5156 23.2539v-39.7695
c0 -2.31055 -0.125 -4.60156 -0.354492 -6.84766zM379.871 381.936c-45.5361 0 -82.5811 -37.0439 -82.5811 -82.5811v-8.46289c4.82324 3.64844 10.3789 6.375 16.5166 7.62891v17.3506h16.5156v-23.5205c5.27051 1.44824 10.1982 4.10547 14.0967 8.00391l9.05273 9.04883
l5.32715 -2.65723c20.459 -10.2422 43.3789 -15.6494 66.2617 -15.6494h4.3584v24.7744h16.5166v-17.3594c6.13672 -1.24512 11.6934 -3.97949 16.5156 -7.62891v8.47168c0 45.5371 -37.0439 82.5811 -82.5801 82.5811zM297.29 258.064
c0 -10.8828 7.10156 -20.04 16.8711 -23.3633c-0.229492 2.24609 -0.354492 4.53711 -0.354492 6.84766v39.7695c-9.58887 -3.41895 -16.5166 -12.5039 -16.5166 -23.2539zM330.322 241.549c0 -27.3271 22.2217 -49.5488 49.5488 -49.5488
c27.3262 0 49.5479 22.2217 49.5479 49.5488v33.0322h-4.3584c-23.4395 0 -46.9072 5.10449 -68.2539 14.8057l-0.709961 -0.708984c-6.99609 -6.99609 -16.0967 -11.6211 -25.7744 -13.3311v-33.7979zM379.871 175.483c-8.7627 0 -17.1211 1.75 -24.7744 4.86328v-8.99219
l24.7744 -18.5801l24.7744 18.5801v8.99219c-7.65332 -3.11328 -16.0127 -4.86328 -24.7744 -4.86328zM139.803 54.4434l-6.41113 38.46h-2.52441l-6.41113 -38.46l7.67285 -7.66895zM97.0322 158.456l-5.82227 -1.05664l5.45898 -32.7344l21.9766 17.5811zM135.968 109.419
l8.42383 12.6416l-12.2627 9.81445l-12.2705 -9.81445l8.43164 -12.6416h7.67773zM145.613 142.246l21.9756 -17.5811l5.45996 32.7344l-5.82324 1.05664zM197.839 234.701c9.76953 3.32324 16.8711 12.4805 16.8711 23.3633c0 10.75 -6.92773 19.835 -16.5166 23.2539
v-39.7695c0 -2.31055 -0.125 -4.60156 -0.354492 -6.84766zM128.875 390.193c-43.7334 0 -79.3262 -35.5928 -79.3262 -79.3262v-19.9756c4.82227 3.64844 10.3789 6.375 16.5156 7.62891v17.3506h16.5166v-24.7744h6.91895c12.0566 0 22.7178 7.68945 26.5527 19.125
l15.6572 -5.22559c-1.71777 -5.14551 -4.37891 -9.73828 -7.63379 -13.7822c11.4033 0.632812 21.3389 8.06055 24.9961 19.0078l15.6611 -5.22559c-1.7168 -5.14551 -4.37891 -9.73828 -7.63281 -13.7822c11.0488 0.608398 20.6533 7.62109 24.5771 18v6.65723h16.5156
v-17.3506c6.1377 -1.24609 11.6934 -3.98047 16.5166 -7.62891v40.1572c0 12.0557 -7.68945 22.7178 -19.125 26.54l-1.85156 0.612305l-8.76172 8.7627c-14.9795 14.9795 -34.9072 23.2295 -56.0967 23.2295zM49.5488 258.064c0 -10.8828 7.10059 -20.04 16.8701 -23.3633
c-0.229492 2.24609 -0.354492 4.53711 -0.354492 6.84766v39.7695c-9.58887 -3.41895 -16.5156 -12.5039 -16.5156 -23.2539zM82.5811 241.549c0 -27.3271 22.2217 -49.5488 49.5479 -49.5488c27.3271 0 49.5488 22.2217 49.5488 49.5488v41.4951
c-7.41602 -5.375 -16.4844 -8.46289 -26.1133 -8.46289h-6.91895v8.46289c-7.41602 -5.375 -16.4844 -8.46289 -26.1133 -8.46289h-6.91895v8.46289c-7.41602 -5.375 -16.4844 -8.46289 -26.1133 -8.46289h-6.91895v-33.0322zM132.129 175.483
c-8.76172 0 -17.1211 1.75 -24.7744 4.86328v-8.99219l24.7744 -18.5801l24.7744 18.5801v8.99219c-7.65332 -3.11328 -16.0117 -4.86328 -24.7744 -4.86328zM16.5166 123.146v-112.823h231.226v36.6094l10.3223 -2.67773
c2.39551 -0.608398 4.35938 -0.899414 6.19336 -0.899414c13.6572 0 24.7744 11.1172 24.7744 24.7744s-11.1172 24.7744 -24.7744 24.7744c-1.83398 0 -3.79785 -0.290039 -6.19336 -0.907227l-10.3223 -2.66992v33.8193c0 11.9717 -8.55664 22.2295 -20.3467 24.3867
l-38.1055 6.91895l-10.04 -60.2695l-21.9072 17.5244l-8.27832 -12.4121l8.42383 -50.5117l-25.3594 -25.3633l-25.3584 25.3516l8.42285 50.5156l-8.27832 12.4111l-21.9072 -17.5234l-10.04 60.2695l-38.1133 -6.92285
c-11.7822 -2.15332 -20.3379 -12.4033 -20.3379 -24.375zM495.483 10.3223v112.823c0 11.9717 -8.55566 22.2295 -20.3467 24.3867l-38.1045 6.91895l-10.04 -60.2695l-21.9072 17.5244l-8.27832 -12.4121l8.42285 -50.5117l-25.3584 -25.3633l-25.3594 25.3516
l8.42383 50.5156l-8.27832 12.4111l-21.9072 -17.5234l-10.04 60.2695l-38.1133 -6.92285c-11.7822 -2.15332 -20.3389 -12.4033 -20.3389 -24.375v-13.7266c22.7666 0 41.291 -18.5234 41.291 -41.29c0 -22.7656 -18.5244 -41.29 -41.291 -41.29v-16.5166h231.226z
M495.483 10.3223zM0 -47.4834h16.5166v-16.5166h-16.5166v16.5166zM0 -47.4834zM33.0322 -47.4834h16.5166v-16.5166h-16.5166v16.5166zM33.0322 -47.4834zM66.0645 -47.4834h16.5166v-16.5166h-16.5166v16.5166zM66.0645 -47.4834zM249.396 -27.665l13.209 9.91113
l34.6855 -46.2461h-198.193v16.5166h165.161zM249.396 -27.665zM495.483 448h16.5166v-16.5166h-16.5166v16.5166zM495.483 448zM462.451 448h16.5166v-16.5166h-16.5166v16.5166zM462.451 448zM429.419 448h16.5166v-16.5166h-16.5166v16.5166zM429.419 448z
M262.604 411.665l-13.209 -9.91113l-34.6855 46.2461h198.193v-16.5166h-165.161zM262.604 411.665z" />
    <glyph glyph-name="142-graph-2" unicode="&#xf18d;" 
d="M490.667 -21.333c11.7754 0 21.333 -9.55762 21.333 -21.334c0 -11.7754 -9.55762 -21.333 -21.333 -21.333h-426.667c-35.2969 0 -64 28.7031 -64 64v426.667c0 11.7754 9.55762 21.333 21.333 21.333c11.7764 0 21.334 -9.55762 21.334 -21.333v-426.667
c0 -11.7656 9.56738 -21.333 21.333 -21.333h426.667zM490.667 -21.333zM510.761 348.203c0.150391 -0.426758 0.291016 -0.84375 0.40625 -1.28125c0.489258 -1.79199 0.833008 -3.64551 0.833008 -5.58887v-74.666c0 -11.7764 -9.55762 -21.334 -21.333 -21.334
c-11.7764 0 -21.334 9.55762 -21.334 21.334v23.7549l-76.6299 -75.3799c-7.9375 -7.9375 -18.6455 -12.375 -30.0361 -12.375c-11.1562 0 -21.6621 4.25488 -29.6621 12l-33.4531 29.8223c-0.296875 0.265625 -0.609375 0.557617 -0.884766 0.84375l-176.99 -175.166
c-4.16113 -4.12012 -9.58301 -6.16699 -15.0098 -6.16699c-5.50586 0 -10.9844 2.11426 -15.167 6.32324c-8.28125 8.375 -8.21387 21.8906 0.15625 30.1768l176.911 175.083c16.4014 16.375 43.0781 16.5469 59.75 0.416992l33.4639 -29.8232
c0.296875 -0.265625 0.609375 -0.556641 0.885742 -0.84375l75.8955 74.667h-22.5625c-11.7764 0 -21.333 9.55762 -21.333 21.333c0 11.7764 9.55664 21.334 21.333 21.334h74.667c0.5 0 0.958008 -0.120117 1.45312 -0.151367
c0.458008 -0.03125 0.90625 -0.0732422 1.36426 -0.135742c1.875 -0.244141 3.70801 -0.650391 5.40625 -1.36426h0.0107422c1.75977 -0.739258 3.32812 -1.76074 4.8125 -2.91699c0.359375 -0.275391 0.703125 -0.551758 1.03125 -0.848633
c1.36914 -1.21875 2.625 -2.54199 3.65039 -4.06738c0.0419922 -0.0732422 0.0732422 -0.146484 0.115234 -0.224609c0.962891 -1.45801 1.67676 -3.07227 2.25 -4.75488zM510.761 348.203z" />
    <glyph glyph-name="040-smartphone" unicode="&#xf127;" 
d="M367.996 448c12.2363 0 22.1562 -9.91992 22.1562 -22.1504v-467.704c0 -12.2256 -9.91992 -22.1455 -22.1562 -22.1455h-223.998c-12.2305 0 -22.1562 9.91406 -22.1562 22.1455v467.704c0 12.2305 9.92578 22.1504 22.1562 22.1504h223.998zM237.08 420.92
c-1.28418 0 -2.31152 -1.03223 -2.30566 -2.30566c0 -1.26855 1.02637 -2.30566 2.30566 -2.30566h37.8457c1.27344 0 2.30566 1.03711 2.30566 2.30566c0 1.27344 -1.02734 2.30566 -2.30566 2.30566h-37.8457zM255.997 -44.001c7.9873 0 14.4648 6.48242 14.46 14.459
c0 7.9873 -6.47266 14.4658 -14.46 14.4658c-7.98145 0 -14.459 -6.47852 -14.459 -14.4658c0 -7.97656 6.47754 -14.459 14.459 -14.459zM368.848 -0.00195312v0l-0.00585938 384.004h-225.694v-384.004h225.7z" />
    <glyph glyph-name="013-battery" unicode="&#xf10c;" 
d="M512 270.451h-33.0332v-264.256h33.0332v-66.0645h-512v66.0645h33.0332v264.258h-33.0332v66.0645h49.5479v49.5479h82.5801v-49.5479h247.744v49.5479h82.5801v-49.5518h49.5479v-66.0625zM495.483 -10.3232h-16.5166h-445.934h-16.5166v-33.0332h478.967v33.0332z
M462.45 6.19336v264.258h-412.902v-264.258h412.902zM478.966 286.966h16.5156v33.0332h-49.5469v49.5498h-49.5479v-49.5498h-280.775v49.5498h-49.5469v-49.5498h-49.5479v-33.0312v-0.00195312h16.5166h445.933zM156.903 353.032v16.5166h198.193v-16.5166h-198.193z
M201.852 22.9404l15.3926 41.0605h-151.18v16.5166h156.902v-1.25586l12.8574 34.2871h-59.252l41.291 82.5801h-151.799v16.5166h160.059l8.25879 16.5166h89.3682l-14.4512 -16.5166h136.637v-16.5166h-151.09l-28.9033 -33.0332h76.0566l-82.5811 -82.5801h186.517
v-16.5166h-203.033zM203.298 130.065h56.3633l-15.5752 -41.5225l58.0449 58.0381h-72.5879l57.8057 66.0645h-42.7598zM66.0645 410.836v16.5166h49.5469v-16.5166h-49.5469zM412.903 394.321v16.5146h-16.5166v16.5166h16.5166v16.5186h16.5156v-16.5186h16.5166v-16.5166
h-16.5166v-16.5146h-16.5156zM66.0645 237.419v16.5156h16.5166v-16.5156h-16.5166zM99.0967 237.419v16.5156h16.5166v-16.5156h-16.5166zM66.0645 22.71v16.5166h16.5166v-16.5166h-16.5166zM429.419 237.419v16.5156h16.5166v-16.5156h-16.5166zM396.387 237.419v16.5156
h16.5166v-16.5156h-16.5166z" />
    <glyph glyph-name="124-renewable" unicode="&#xf17b;" 
d="M255.999 409.604c95.6182 0 175.696 -65.623 198.25 -154.216c-2.05566 0.34082 -4.12988 0.613281 -6.24609 0.613281c-6.80078 0 -13.2607 -1.90234 -19.0039 -5.20508c-20.3867 76.5537 -90.1045 133.207 -172.998 133.207
c-98.8086 0 -179.203 -80.3936 -179.203 -179.202c0 -2.38086 0.367188 -4.66797 0.486328 -7.02344l28.8682 28.8682c5 5.00195 13.0996 5.00195 18.0996 0c5.00098 -5 5.00098 -13.0986 0 -18.0986l-51.2012 -51.2012c-2.5 -2.5 -5.77832 -3.74609 -9.05371 -3.74609
c-3.27637 0 -6.55371 1.24609 -9.04492 3.74609l-51.2012 51.2012c-5 5 -5 13.0977 0 18.0986c5 5.00195 13.0986 5.00195 18.0996 0l29.7471 -29.7471c-0.178711 2.62793 -0.401367 5.23145 -0.401367 7.90234c0 113.11 91.6924 204.803 204.803 204.803zM508.257 175.454
c4.99219 -5.00098 4.99219 -13.0986 -0.00976562 -18.0986c-5 -5.00195 -13.0996 -5.00195 -18.0996 0l-29.7471 29.7471c0.178711 -2.62793 0.401367 -5.23145 0.401367 -7.90234c0 -113.11 -91.6924 -204.803 -204.804 -204.803
c-95.6172 0 -175.694 65.6221 -198.248 154.216c2.05566 -0.34082 4.12988 -0.613281 6.24609 -0.613281c6.80078 0 13.2607 1.91113 19.0039 5.20508c20.3867 -76.5537 90.1045 -133.207 172.998 -133.207c98.8086 0 179.203 80.3936 179.203 179.202
c0 2.38086 -0.367188 4.66797 -0.486328 7.02344l-28.8682 -28.8682c-5 -5.00195 -13.0996 -5.00195 -18.0996 0c-5.00098 5 -5.00098 13.0977 0 18.0986l51.2012 51.2012c2.5 2.5 5.77637 3.74609 9.05371 3.74609s6.55469 -1.24609 9.05469 -3.74609z" />
    <glyph glyph-name="122-close" unicode="&#xf179;" 
d="M179.775 107.095c-2.22266 0 -4.44434 0.844727 -6.13379 2.54688c-3.3916 3.39062 -3.3916 8.89941 0 12.291l152.438 152.438c3.3916 3.3916 8.88867 3.3916 12.2793 0c3.3916 -3.39062 3.3916 -8.88867 0 -12.2793l-152.449 -152.449
c-1.68945 -1.70215 -3.91211 -2.54688 -6.13379 -2.54688zM332.213 107.095c-2.22168 0 -4.44434 0.844727 -6.13379 2.54688l-152.449 152.438c-3.3916 3.3916 -3.3916 8.88867 0 12.2793c3.39062 3.3916 8.88867 3.3916 12.2793 0l152.438 -152.438
c3.39062 -3.3916 3.39062 -8.90039 0 -12.291c-1.69043 -1.69043 -3.91211 -2.53516 -6.13477 -2.53516zM256 -63.9883c-141.165 0 -256 114.835 -256 255.977c0 141.153 114.835 256 256 256s256 -114.835 256 -256s-114.858 -255.977 -256 -255.977zM256 430.628
c-131.582 0 -238.64 -107.058 -238.64 -238.64s107.058 -238.64 238.64 -238.64s238.64 107.058 238.64 238.64s-107.058 238.64 -238.64 238.64z" />
    <glyph glyph-name="068-chat" unicode="&#xf143;" 
d="M85.333 230.698c-4.71875 0 -8.5332 3.82324 -8.5332 8.53418c0 4.70996 3.81445 8.5332 8.5332 8.5332h110.934c4.71875 0 8.5332 -3.82324 8.5332 -8.5332c0 -4.71094 -3.81445 -8.53418 -8.5332 -8.53418h-110.934zM307.2 196.565
c4.71875 0 8.5332 -3.82324 8.5332 -8.5332c0 -4.71094 -3.81445 -8.5332 -8.5332 -8.5332h-221.867c-4.71875 0 -8.5332 3.82227 -8.5332 8.5332c0 4.70996 3.81445 8.5332 8.5332 8.5332h221.867zM307.2 145.365c4.71875 0 8.5332 -3.82324 8.5332 -8.5332
s-3.81445 -8.5332 -8.5332 -8.5332h-221.867c-4.71875 0 -8.5332 3.82324 -8.5332 8.5332s3.81445 8.5332 8.5332 8.5332h221.867zM461.414 426.368c27.8955 -0.00878906 50.5859 -22.707 50.5859 -50.6025v-180.421c0 -27.8955 -22.6982 -50.5938 -50.6025 -50.5938
h-9.13086v-85.333c0 -3.52441 -2.16699 -6.69043 -5.46094 -7.96191c-0.999023 -0.383789 -2.04004 -0.572266 -3.07227 -0.572266c-2.35547 0 -4.66797 0.981445 -6.31445 2.79102l-44.8857 49.374v-0.964844c0 -27.8955 -22.6982 -50.5938 -50.6025 -50.5938
l-141.875 -0.580078l-82.8076 -91.0938c-1.64746 -1.80859 -3.95996 -2.79004 -6.31445 -2.79004c-1.0332 0 -2.07422 0.1875 -3.07227 0.571289c-3.29395 1.27148 -5.46094 4.4375 -5.46094 7.96191v85.333h-51.7979c-27.9043 0 -50.6025 22.6904 -50.6025 50.5947v180.402
c0 27.9043 22.6982 50.6035 50.6025 50.6035l68.8643 0.144531v43.7246c0 27.9043 22.6982 50.6035 50.6025 50.6035zM375.467 102.093v23.0488v157.363c0 18.4912 -15.0439 33.5361 -33.5361 33.5361l-213.914 -0.444336h-0.0166016v0l-77.3799 -0.162109
c-18.5088 0 -33.5537 -15.0439 -33.5537 -33.5361v-180.403c0 -18.4824 15.0449 -33.5273 33.5361 -33.5273h60.3311c4.71875 0 8.5332 -3.82227 8.5332 -8.5332v-71.7998l70.4854 77.543c1.60449 1.7666 3.89062 2.78125 6.28027 2.79004l145.664 0.597656
c18.5264 0 33.5703 15.0352 33.5703 33.5273zM494.934 195.362h0.0078125v180.411c0 18.4922 -15.0439 33.5361 -33.5352 33.5361h-0.0175781l-291.336 0.597656c-18.4756 0 -33.5195 -15.0439 -33.5195 -33.5361v-43.6904l205.381 0.417969
c27.9209 0 50.6191 -22.6982 50.6191 -50.6025v-154.061l42.667 -46.9336v71.7998c0 4.70996 3.81445 8.5332 8.5332 8.5332h17.6641c18.4912 0 33.5361 15.0352 33.5361 33.5273z" />
    <glyph glyph-name="123-heart" unicode="&#xf17a;" 
d="M232.3 -25.6836l-188.032 187.929c-28.5029 28.502 -44.2676 66.4014 -44.2676 106.597c0 40.2998 15.6611 78.1992 44.1631 106.701c28.5029 28.3984 66.2969 44.0586 106.493 44.0586c39.6729 0 77.0498 -15.2422 105.448 -42.9102
c28.2939 27.5635 65.5664 42.7021 105.136 42.7021c40.2998 0 78.0938 -15.6611 106.597 -44.1631c28.502 -28.5029 44.1631 -66.4014 44.1631 -106.702c-0.104492 -40.1953 -15.7646 -78.0947 -44.2676 -106.597l-187.615 -187.615
c-6.26367 -6.26465 -15.0342 -9.91797 -23.9082 -9.91797c-8.97852 0 -17.54 3.5498 -23.9092 9.91797zM62.3291 357.377c-23.5947 -23.7002 -36.6455 -55.126 -36.6455 -88.5352s13.0508 -64.835 36.75 -88.5352l187.929 -187.928
c3.13184 -3.02832 8.66504 -3.02832 11.6934 0l187.719 187.719c23.7002 23.7002 36.751 55.126 36.751 88.5352s-12.9463 64.835 -36.6465 88.5352c-23.5947 23.5957 -55.0205 36.6465 -88.4307 36.6465c-33.5137 0 -64.9395 -13.0508 -88.6387 -36.751l-7.51758 -7.5166
c-2.40137 -2.40137 -5.74219 -3.75879 -9.08301 -3.75879v0c-3.44531 0 -6.68164 1.35742 -9.08301 3.75879l-7.72656 7.72559c-23.6992 23.7002 -55.2295 36.75 -88.6396 36.75c-33.4092 0 -64.835 -13.0498 -88.4307 -36.6455z" />
    <glyph glyph-name="156-attachment-1" unicode="&#xf19b;" 
d="M497.33 257.499c3.87793 -3.86816 3.87793 -10.1475 0 -14.0254l-270.715 -270.734c-23.6963 -23.7061 -55.3271 -36.749 -89.0508 -36.749c-33.7441 0 -65.3652 13.043 -89.0615 36.749c-23.7061 23.6963 -36.749 55.3271 -36.749 89.0615
c0 33.7334 13.043 65.3545 36.749 89.0508l270.734 270.734c36.7393 36.7393 93.9219 34.9639 132.981 -4.09668c39.0703 -39.0703 40.8359 -96.2422 4.10645 -132.981l-254.328 -254.328c-21.9404 -21.9404 -57.6777 -21.9805 -79.6582 0
c-21.96 21.9697 -21.96 57.6973 0 79.6572l172.28 172.271c3.87793 3.87891 10.1465 3.87891 14.0254 0c3.87793 -3.87793 3.87793 -10.1465 0 -14.0254l-172.28 -172.28c-14.2236 -14.2227 -14.2236 -37.374 0 -51.6074c14.2432 -14.2236 37.3936 -14.2139 51.6074 0
l254.318 254.329c28.7354 28.7344 26.9697 73.8555 -4.10645 104.931c-31.085 31.0664 -76.1963 32.8223 -104.931 4.09668l-270.715 -270.734c-19.957 -19.9463 -30.9365 -46.5889 -30.9365 -75.0156c0 -28.4375 10.9902 -55.0693 30.9365 -75.0264
c19.9473 -19.957 46.5889 -30.9365 75.0264 -30.9365c28.4268 0 55.0596 10.9795 75.0156 30.9365l270.725 270.725c3.87793 3.87793 10.1475 3.87793 14.0254 0z" />
    <glyph glyph-name="127-profit" unicode="&#xf17e;" 
d="M128.068 174.651c14.1426 0 25.6133 -11.4707 25.6133 -25.6143v-170.758c0 -14.1426 -11.4707 -25.6133 -25.6133 -25.6133h-102.455c-14.1426 0 -25.6133 11.4707 -25.6133 25.6133v170.758c0 14.1436 11.4707 25.6143 25.6133 25.6143h102.455zM136.606 -21.7207
v170.758c0 4.71777 -3.82129 8.53809 -8.53809 8.53809h-102.455c-4.7168 0 -8.53711 -3.82031 -8.53711 -8.53809v-170.758c0 -4.7168 3.82031 -8.53711 8.53711 -8.53711h102.455c4.7168 0 8.53809 3.82031 8.53809 8.53711zM136.606 -21.7207zM486.659 260.03
c14.1436 0 25.6143 -11.4707 25.6143 -25.6143v-256.137c0 -14.1426 -11.4707 -25.6133 -25.6143 -25.6133h-102.454c-14.1436 0 -25.6143 11.4707 -25.6143 25.6133v256.137c0 14.1436 11.4707 25.6143 25.6143 25.6143h102.454zM495.197 -21.7207v256.137
c0 4.71777 -3.82031 8.53809 -8.53809 8.53809h-102.454c-4.71777 0 -8.53809 -3.82031 -8.53809 -8.53809v-256.137c0 -4.7168 3.82031 -8.53711 8.53809 -8.53711h102.454c4.71777 0 8.53809 3.82031 8.53809 8.53711zM495.197 -21.7207zM307.364 217.341
c14.1426 0 25.6133 -11.4707 25.6133 -25.6143v-213.447c0 -14.1426 -11.4707 -25.6133 -25.6133 -25.6133h-102.455c-14.1426 0 -25.6133 11.4707 -25.6133 25.6133v213.447c0 14.1436 11.4707 25.6143 25.6133 25.6143h102.455zM315.901 -21.7207v213.447
c0 4.71777 -3.82031 8.53809 -8.53711 8.53809h-102.455c-4.7168 0 -8.53809 -3.82031 -8.53809 -8.53809v-213.447c0 -4.7168 3.82129 -8.53711 8.53809 -8.53711h102.455c4.7168 0 8.53711 3.82031 8.53711 8.53711zM315.901 -21.7207zM318.403 271.069l-75.0732 75.0732
l-87.8809 -87.8799c-3.33594 -3.33203 -8.73633 -3.33203 -12.0723 0l-40.9219 40.9219l-70.8047 -70.8047c-2.1416 -2.21973 -5.31934 -3.11035 -8.30371 -2.3291c-2.98633 0.78418 -5.31445 3.1123 -6.09766 6.09863c-0.78125 2.98438 0.108398 6.16211 2.32812 8.30273
l76.8408 76.8418c3.33691 3.33105 8.73633 3.33105 12.0732 0l40.9219 -40.9229l87.8809 87.8809c3.33594 3.33203 8.73633 3.33203 12.0723 0l75.0732 -75.0732l141.609 141.609h-13.541c-4.7168 0 -8.53809 3.82031 -8.53809 8.53711
c0 4.71777 3.82129 8.53809 8.53809 8.53809h34.1514c0.104492 0 0.188477 -0.0595703 0.318359 -0.0400391c1.01562 -0.0195312 2.01953 -0.220703 2.9668 -0.595703c0.0791016 -0.0253906 0.134766 -0.124023 0.21582 -0.124023
c1.11426 -0.480469 2.08984 -1.22559 2.85156 -2.16895c0.473633 -0.540039 0.873047 -1.1377 1.19336 -1.77148c0.142578 -0.283203 0.277344 -0.567383 0.394531 -0.853516c0.379883 -0.954102 0.576172 -1.96387 0.597656 -2.98438v-34.1514
c0 -4.7168 -3.82031 -8.53809 -8.53809 -8.53809c-4.7168 0 -8.53711 3.82129 -8.53711 8.53809v13.541l-147.646 -147.646c-3.33594 -3.33203 -8.73633 -3.33203 -12.0723 0zM318.403 271.069z" />
    <glyph glyph-name="120-play-button-4" unicode="&#xf177;" 
d="M477.606 319.945c34.1748 -59.1943 43.2559 -128.152 25.5645 -194.176c-17.6895 -66.0215 -60.0332 -121.201 -119.225 -155.377c-39.4287 -22.7637 -83.1904 -34.3926 -127.529 -34.3926c-22.2285 0 -44.5996 2.92188 -66.6455 8.83008
c-66.0215 17.6895 -121.203 60.0332 -155.378 119.225c-34.1748 59.1924 -43.2539 128.152 -25.5635 194.173c17.6895 66.0225 60.0312 121.202 119.225 155.379c59.1953 34.1768 128.153 43.2559 194.174 25.5635c66.0225 -17.6895 121.202 -60.0332 155.378 -119.225z
M477.429 132.667c15.8496 59.1475 7.71484 120.925 -22.9014 173.954c-30.6162 53.0303 -80.0518 90.9619 -139.197 106.81c-19.7432 5.29102 -39.792 7.90918 -59.7021 7.90918c-39.7246 0 -78.9238 -10.417 -114.249 -30.8115
c-53.0293 -30.6182 -90.9609 -80.0518 -106.81 -139.197c-15.8496 -59.1475 -7.7168 -120.926 22.8994 -173.954c30.6172 -53.0303 80.0508 -90.9619 139.198 -106.81c59.1465 -15.8467 120.924 -7.71484 173.952 22.9023c53.0303 30.6162 90.9619 80.0518 106.81 139.197z
M378.778 216.148c8.72949 -5.04004 13.9414 -14.0684 13.9414 -24.1484c0 -10.0811 -5.21094 -19.1094 -13.9404 -24.1514l-164.528 -94.9883c-4.36523 -2.51953 -9.1543 -3.78125 -13.9443 -3.78125c-4.78906 0 -9.5752 1.25879 -13.9404 3.78027
c-8.73242 5.04102 -13.9443 14.0684 -13.9443 24.1494v189.98c0 10.0811 5.21289 19.1094 13.9443 24.1494c8.73047 5.03809 19.1553 5.04004 27.8857 -0.000976562zM365.452 190.926c0.200195 0.116211 0.619141 0.358398 0.619141 1.07227
s-0.416992 0.955078 -0.618164 1.07129l-164.526 94.9893c-0.123047 0.0712891 -0.325195 0.188477 -0.604492 0.188477c-0.180664 0 -0.391602 -0.0478516 -0.632812 -0.188477c-0.618164 -0.356445 -0.618164 -0.838867 -0.618164 -1.07031v-189.98
c0 -0.231445 0 -0.713867 0.618164 -1.07129c0.615234 -0.357422 1.03418 -0.116211 1.23535 0zM413.303 313.56c4.50391 -5.81836 3.43848 -14.1875 -2.38086 -18.6914c-2.42578 -1.87988 -5.29688 -2.78906 -8.14551 -2.78906
c-3.98145 0 -7.91992 1.77637 -10.5459 5.16797c-27.4492 35.46 -68.7207 59.2881 -113.232 65.3691c-7.29102 0.99707 -12.3945 7.71484 -11.3994 15.0059c0.99707 7.29297 7.72363 12.3955 15.0068 11.3994c51.3711 -7.01953 99.0088 -34.5234 130.697 -75.4619z" />
    <glyph glyph-name="118-add-1" unicode="&#xf175;" 
d="M512 216.381v-48.7617h-231.619v-231.619h-48.7617v231.619h-231.619v48.7617h231.619v231.619h48.7617v-231.619h231.619z" />
    <glyph glyph-name="103-monitor" unicode="&#xf166;" 
d="M448.851 421.953c34.8701 0 63.1494 -28.2783 63.1494 -63.1494v-244.624c0 -34.8711 -28.3857 -63.1494 -63.1494 -63.1494h-178.498v-60.2793h88.9834c7.97266 0 14.3516 -6.37891 14.3516 -14.3525s-6.37891 -14.3516 -14.3516 -14.3516h-206.672
c-7.97266 0 -14.3516 6.37793 -14.3516 14.3516s6.37891 14.3525 14.3516 14.3525h88.9834v60.2793h-178.498c-34.8701 0 -63.1494 28.3848 -63.1494 63.1494v244.624c0 34.8711 28.3857 63.1494 63.1494 63.1494h385.701zM63.1494 393.249
c-19.0303 0 -34.4453 -15.415 -34.4453 -34.4453v-204.438h454.698v204.438c0 19.0303 -15.5215 34.4453 -34.4453 34.4453h-385.808zM448.851 79.7344c19.0303 0 34.4453 15.5215 34.4453 34.4453v11.4814h-454.592v-11.4814c0 -19.0303 15.5215 -34.4453 34.4453 -34.4453
h385.701z" />
    <glyph glyph-name="161-back-1" unicode="&#xf1a0;" 
d="M512 208.127v-32.2549h-450.258l101.487 -101.486l-22.8076 -22.8086l-140.422 140.424l140.422 140.421l22.8076 -22.8076l-101.487 -101.487h450.258z" />
    <glyph glyph-name="129-tick-inside-a-circle" unicode="&#xf180;" 
d="M255.999 -63.999c-141.152 0 -255.999 114.837 -255.999 255.998c0 141.163 114.847 256.001 255.999 256.001c141.154 0 256.001 -114.838 256.001 -256.001c0 -141.161 -114.847 -255.998 -256.001 -255.998zM255.999 431.484
c-132.056 0 -239.483 -107.437 -239.483 -239.485s107.428 -239.483 239.483 -239.483c132.058 0 239.485 107.435 239.485 239.483s-107.428 239.485 -239.485 239.485zM208.674 82.8057l-91.5176 91.5176l11.6787 11.6768l79.8389 -79.8389l173.778 173.771
l11.6777 -11.6768z" />
    <glyph glyph-name="060-arrows-4" unicode="&#xf13b;" 
d="M256 -38.5986c-127.008 0 -230.599 103.591 -230.599 230.599s103.591 230.599 230.599 230.599s230.599 -103.194 230.599 -230.599s-103.591 -230.599 -230.599 -230.599zM256 390.053c-109.147 0 -198.053 -88.9053 -198.053 -198.053
s88.9053 -198.053 198.053 -198.053s198.053 88.9053 198.053 198.053s-88.9053 198.053 -198.053 198.053zM202.815 76.8994c-6.35059 6.35059 -6.35059 16.6699 0 23.0195l93.2715 93.2715l-93.2715 93.2715c-6.35059 6.35059 -6.35059 16.6699 0 23.0205
s16.6699 6.35059 23.0205 0l104.781 -104.781c3.1748 -3.17578 4.7627 -7.14453 4.7627 -11.5107c0 -4.36523 -1.58789 -8.33496 -4.7627 -11.5098l-104.781 -104.781c-3.17578 -3.17578 -7.54102 -4.7627 -11.5107 -4.7627c-4.36523 0 -8.33496 1.58691 -11.5098 4.7627z
" />
    <glyph glyph-name="182-team-1" unicode="&#xf1b5;" 
d="M512 152.551v-67.9053h-146.068c28.1182 -11.041 46.9717 -38.0371 46.9717 -69.0703v-79.5752h-313.807v79.5752c0 31.0332 18.8535 58.0293 46.9717 69.0703h-146.068v67.9053c0 36.4844 26.1201 67.3203 62.1094 73.3076l36.9873 6.16016v17.6807
c-15.0791 12.1143 -24.7744 30.6787 -24.7744 51.4893v0.470703c-15.3516 10.752 -24.7734 28.374 -24.7734 47.2441v8.25781c0 50.085 40.7529 90.8389 90.8379 90.8389c30.6709 0 59.4004 -15.7236 76.0986 -41.3564c12.8408 -0.908203 22.998 -11.6436 22.998 -24.708
v-33.0322c0 -3.32031 -0.371094 -6.58984 -0.941406 -9.82715c0.586914 0.0986328 1.16504 0.255859 1.75098 0.34668c10.917 1.69336 21.7764 1.50293 32.2236 -0.280273v9.76074c0 54.6436 44.4531 99.0967 99.0967 99.0967s99.0967 -44.4531 99.0967 -99.0967v-129.792
c24.79 -12.2383 41.29 -37.5908 41.29 -66.5605zM289.032 348.903v-14.0801c5.72266 -2.03125 11.2725 -4.51758 16.5166 -7.54785v26.4834l11.833 -5.67285c0.0996094 -0.0419922 16.5986 -7.44043 54.2314 -7.44043c37.6318 0 54.1309 7.39844 54.2969 7.48145
l11.709 5.39258l0.0585938 -52.3232c0 -20.8105 -9.69531 -39.3662 -24.7744 -51.4893v-17.6807l36.9873 -6.16016c1.46191 -0.248047 2.87402 -0.594727 4.30273 -0.916992v123.954c0 45.5352 -37.0459 82.5801 -82.5801 82.5801
c-45.5352 0 -82.5811 -37.0449 -82.5811 -82.5801zM342.032 290.585c12.1475 -2.42773 21.3223 -13.1553 21.3223 -25.9961v-12.165c2.74219 -0.470703 5.49219 -0.775391 8.25879 -0.775391c27.3252 0 49.5479 22.2217 49.5479 49.5479v28.1357
c-9.81836 -2.46973 -26.0127 -5.20312 -49.5479 -5.20312c-23.5361 0 -39.7295 2.7334 -49.5488 5.20312v-14.0801c7.80371 -6.99512 14.6006 -15.2451 19.9678 -24.667zM356.17 198.375l15.4434 -46.3359l24.7734 74.3223v13.626
c-7.65527 -3.11328 -16.0117 -4.86328 -24.7734 -4.86328c-2.75879 0 -5.5166 0.255859 -8.25879 0.602539v-2.43652c0 -12.1143 -2.59277 -23.9395 -7.18457 -34.915zM356.848 144.111l-11.6602 34.9893c-3.2793 -4.41797 -6.8877 -8.58789 -10.959 -12.3701z
M410.252 215.733l-23.874 -71.6133l42.3311 42.3389l-5.40918 27.1025zM242.804 323.105c-35.8486 -5.5332 -64.8008 -35.8154 -68.8477 -72.0186c-1.75879 -15.7236 1.04102 -31.3398 7.72168 -45.2217v31.6865l11.5117 -4.93066
c0.131836 -0.0576172 18.8857 -7.58887 62.8105 -7.58887s62.6787 7.53125 62.8604 7.61426l11.4131 4.71484l0.0410156 -50.6631c10.5127 13.0977 16.5244 29.5479 16.5244 46.5918v31.2988c0 5.50781 -4.48438 9.99219 -10.001 9.99219h-5.04492l-2.3125 4.5
c-16.2852 31.8105 -51.0762 49.54 -86.6768 44.0244zM163.749 205.906l-7.92773 -5.27637l14.5674 -8.74512c-2.60938 4.49219 -4.77344 9.19922 -6.63965 14.0215zM140.676 210.374l18.209 12.1396c-0.96582 4.88867 -1.50293 9.86816 -1.72559 14.8896
c-5.45898 -1.4541 -11.0576 -2.27148 -16.7725 -2.27148c-8.76172 0 -17.1182 1.75098 -24.7734 4.86426v-10.835zM174.353 170.257l-8.87793 -13.3125l6.97852 -55.7832h33.998v19.085c-12.791 11.4863 -21.5693 27.3008 -24.0059 45.1543zM212.67 83.9512
l-17.8623 -4.12012l22.4043 -33.6104l24.3525 14.6162zM222.968 96.875l33.0322 -26.4258l33.0322 26.4258v12.1318c-9.96777 -4.98047 -21.1572 -7.8457 -33.0322 -7.8457s-23.0645 2.87402 -33.0322 7.8457v-12.1318zM299.33 83.96l-28.8945 -23.1143l24.3525 -14.6172
l22.4043 33.6104zM256 117.678c31.8682 0 57.8066 25.9385 57.8066 57.8057v38.5322c-10.7939 -2.51855 -29.5391 -5.49902 -57.8066 -5.49902s-47.0127 2.98047 -57.8066 5.49902v-38.5322c0 -31.8672 25.9385 -57.8057 57.8066 -57.8057zM74.3223 353.759l11.834 -5.67285
c0.0996094 -0.0419922 16.5986 -7.44043 54.2305 -7.44043c37.6328 0 54.1318 7.39844 54.3057 7.47363l11.71 5.3916l0.0332031 -26.3096c4.33496 2.54297 8.86035 4.76465 13.5596 6.62305c1.93164 4.85547 2.97266 9.90137 2.97266 15.0791v33.0322
c0 4.55859 -3.69922 8.25781 -8.25781 8.25781h-7.63867l-2.38672 4.12109c-13.2793 22.9238 -37.9209 37.1689 -64.2979 37.1689c-40.9844 0 -74.3223 -33.3369 -74.3223 -74.3223v-8.25781c0 -9.00098 3.00586 -17.623 8.25781 -24.6504v29.5059zM90.8389 301.196
c0 -27.3262 22.2227 -49.5479 49.5479 -49.5566c6.00391 0 11.8506 1.13965 17.4658 3.27832c3.13867 23.4863 14.9473 44.7842 32.083 60.251v14.1631c-9.81934 -2.46973 -26.0127 -5.20312 -49.5488 -5.20312c-23.5352 0 -39.7295 2.7334 -49.5479 5.20312v-28.1357z
M105.225 216.312l-19.085 -3.1875l15.79 -26.3105l23.6758 14.2129zM108.321 101.161l6.96973 55.7832l-8.86914 13.3037l-10.1572 -6.09473l-27.6318 46.0557l-3.81543 -0.635742c-27.9863 -4.65723 -48.3008 -28.6387 -48.3008 -57.0225v-51.3896h33.0322v24.7744h16.5156
v-24.7744h42.2568zM124.961 101.161h30.8438l-7.47363 59.8379l11.8428 17.7637l-19.7871 11.8662l-19.7939 -11.875l11.8418 -17.7627zM223.835 -47.4834l7.11035 63.9834l-8.91113 13.3613l-9.82715 -5.89648l-34.6006 51.8936l-17.1855 -3.96387
c-26.3838 -6.07812 -44.8076 -29.2412 -44.8076 -56.3193v-63.0586h33.0322v41.29h16.5156v-41.29h58.6738zM271.55 -47.4834l-7.57227 68.1455l11.8086 17.7129l-19.7861 11.8672l-19.7783 -11.8672l11.8096 -17.7129l-7.57324 -68.1455h31.0918zM396.387 15.5752
c0 27.0781 -18.4238 50.2412 -44.8076 56.3193l-17.1855 3.96387l-34.6006 -51.8936l-9.82715 5.89648l-8.91113 -13.3613l7.11035 -63.9834h58.6738v41.29h16.5156v-41.29h33.0322v63.0586zM495.483 101.161v51.3896c0 28.375 -20.3145 52.3564 -48.3008 57.0225
l-6.46582 1.08203l5.92871 -29.6299l-75.0322 -75.0244l-45.3789 45.3857c-4.16992 -12.0977 -11.3623 -22.7676 -20.6855 -31.1406v-19.085h140.387v24.7744h16.5156v-24.7744h33.0322z" />
    <glyph glyph-name="155-notification" unicode="&#xf19a;" 
d="M467.819 16.1494c1.9834 -3.28516 2.02539 -7.40234 0.147461 -10.7314c-1.89746 -3.34961 -5.46094 -5.41895 -9.30078 -5.41895h-405.333c-3.83984 0 -7.40234 2.07031 -9.30078 5.41895c-1.87793 3.32812 -1.83496 7.44629 0.148438 10.7314l36.6514 61.0557
c16.8955 28.1807 25.835 60.4365 25.835 93.3115v53.4834c0 82.3252 67.0078 149.333 149.333 149.333s149.333 -67.0078 149.333 -149.333v-53.4834c0 -32.875 8.93945 -65.1309 25.835 -93.3115zM72.1709 21.333h367.658l-26.9648 44.9072
c-18.8799 31.4873 -28.8643 67.541 -28.8643 104.276v53.4834c0 70.5918 -57.4082 128 -128 128s-128 -57.4082 -128 -128v-53.4834c0 -36.7354 -9.98438 -72.7891 -28.8848 -104.276zM256 448c23.5312 0 42.667 -19.1357 42.667 -42.667v-42.666
c0 -5.8877 -4.7793 -10.667 -10.667 -10.667s-10.667 4.7793 -10.667 10.666v42.667c0 11.7764 -9.55664 21.333 -21.333 21.333s-21.333 -9.55664 -21.333 -21.333v-42.666c0 -5.8877 -4.7793 -10.667 -10.667 -10.667s-10.667 4.7793 -10.667 10.666v42.667
c0 23.5312 19.1357 42.667 42.667 42.667zM302.165 16.0645c4.71484 -8.06445 7.21094 -17.3018 7.21094 -26.7314c-0.0429688 -29.418 -23.957 -53.333 -53.376 -53.333s-53.333 23.915 -53.334 53.333c0 9.42969 2.49609 18.667 7.21094 26.7314
c2.98633 5.07715 9.47168 6.74121 14.6133 3.81836c5.07812 -2.98535 6.78418 -9.51367 3.81836 -14.6133c-2.77246 -4.71484 -4.28711 -10.3672 -4.28711 -15.9355c0 -17.6426 14.3564 -32 32 -32c17.6426 0 32 14.3574 32 32c0 5.56836 -1.51562 11.2207 -4.28809 15.9355
c-2.98633 5.07715 -1.28027 11.627 3.81836 14.6133c5.09863 2.92188 11.6055 1.25781 14.6133 -3.81836z" />
    <glyph glyph-name="079-map" unicode="&#xf14e;" 
d="M508.127 427.622c2.43945 -1.75879 3.87305 -4.56152 3.87305 -7.55859v-381.673c0 -3.83496 -2.35547 -7.2793 -5.93945 -8.68555l-167.563 -65.1631c-0.0283203 -0.0185547 -0.0654297 -0.00976562 -0.0927734 -0.0185547
c-1.04297 -0.391602 -2.15039 -0.615234 -3.27734 -0.615234c-0.540039 0 -1.0791 0.046875 -1.61914 0.149414l-156.412 27.6016l-165.767 -36.8359c-0.669922 -0.139648 -1.34961 -0.214844 -2.01953 -0.214844c-2.09473 0 -4.15234 0.708008 -5.81836 2.04883
c-2.20703 1.76855 -3.49121 4.43066 -3.49121 7.26074v400.291c0 4.36621 3.03516 8.13574 7.28906 9.08594l167.563 37.2363c0.996094 0.213867 1.99219 0.0830078 2.98828 -0.0185547c0.390625 -0.0380859 0.772461 0.0927734 1.16406 0l155.685 -36.6318l165.051 55.0166
c2.83008 0.96875 5.95703 0.474609 8.38672 -1.27539zM18.6182 356.752v-381.226l148.945 33.1035v381.216zM186.182 389.697v-380.732l139.637 -24.6318v372.513zM493.382 44.7578v362.394l-148.945 -49.6455v-370.669z" />
    <glyph glyph-name="148-close-1" unicode="&#xf193;" 
d="M512 418.743l-226.743 -226.743l226.743 -226.744l-29.2559 -29.2559l-226.744 226.743l-226.743 -226.743l-29.2568 29.2559l226.743 226.744l-226.743 226.743l29.2568 29.2568l226.743 -226.743l226.744 226.743z" />
    <glyph glyph-name="145-small-calendar" unicode="&#xf190;" 
d="M469.344 400c23.5684 0 42.6562 -19.0879 42.6562 -42.6562v-378.672c0 -23.5684 -19.0879 -42.6719 -42.6562 -42.6719h-426.672c-23.5684 0 -42.6719 19.1035 -42.6719 42.6719v378.672c0 23.5684 19.1035 42.6562 42.6719 42.6562h69.3281v32
c0 8.84766 7.16797 16 16 16s16 -7.15234 16 -16v-32h96v32c0 8.84766 7.16797 16 16 16s16 -7.15234 16 -16v-32h96v32c0 8.84766 7.15234 16 16 16s16 -7.15234 16 -16v-32h69.3438zM480 -21.3281v378.672c0 5.87207 -4.78418 10.6562 -10.6562 10.6562h-69.3438v-32
c0 -8.84766 -7.15234 -16 -16 -16s-16 7.15234 -16 16v32h-96v-32c0 -8.84766 -7.16797 -16 -16 -16s-16 7.15234 -16 16v32h-96v-32c0 -8.84766 -7.16797 -16 -16 -16s-16 7.15234 -16 16v32h-69.3281c-5.8877 0 -10.6719 -4.78418 -10.6719 -10.6562v-378.672
c0 -5.8877 4.78418 -10.6719 10.6719 -10.6719h426.672c5.87207 0 10.6562 4.78418 10.6562 10.6719zM112 208v48h64v-48h-64zM112 128v48h64v-48h-64zM112 48v48h64v-48h-64zM224 48v48h64v-48h-64zM224 128v48h64v-48h-64zM224 208v48h64v-48h-64zM336 48v48h64v-48h-64z
M336 128v48h64v-48h-64zM336 208v48h64v-48h-64z" />
    <glyph glyph-name="009-drop" unicode="&#xf108;" 
d="M256.003 -64c-103.361 0 -187.454 84.0928 -187.454 187.448c0 96.6436 154.211 294.7 171.791 316.963c3.78418 4.78906 9.55762 7.58887 15.6572 7.58887c6.09863 0 11.8721 -2.79395 15.6572 -7.58887c17.5859 -22.2686 171.79 -220.319 171.79 -316.963
c0.00683594 -103.355 -84.0791 -187.448 -187.441 -187.448zM256.003 395.342c-52.1924 -69.2344 -147.546 -208.779 -147.546 -271.894c0 -81.3525 66.1875 -147.54 147.546 -147.54c81.3594 0 147.547 66.1807 147.547 147.54
c-0.00683594 63.1143 -95.3604 202.659 -147.547 271.894zM256.003 15.7891c-11.0205 0 -19.9541 8.93359 -19.9541 19.9541c0 11.0215 8.93359 19.9541 19.9541 19.9541c37.3545 0 67.751 30.377 67.751 67.7305c0 11.0215 8.93262 19.9541 19.9541 19.9541
c11.0146 0 19.9541 -8.93262 19.9541 -19.9541c-0.00683594 -59.3496 -48.3027 -107.639 -107.659 -107.639z" />
    <glyph glyph-name="064-reload" unicode="&#xf13f;" 
d="M117.261 346.469c-55.5166 -50.1846 -78.9365 -126.611 -61.3721 -199.379c1.88184 -7.52832 -2.82227 -15.1602 -10.3506 -17.042c-1.14941 -0.314453 -2.19531 -0.418945 -3.3457 -0.418945c-6.37695 0 -12.1279 4.28711 -13.6963 10.7695
c-20.0732 82.8047 6.69141 169.791 69.8408 226.98c45.8984 41.6123 105.388 62.8359 167.282 59.6992c49.9756 -2.50879 96.71 -20.4922 134.662 -51.5439l-2.19531 57.8174c-0.313477 7.84082 5.75 14.3232 13.5918 14.6367
c7.73633 0.313477 14.3232 -5.75 14.6367 -13.5918l3.4502 -92.2139v0v-0.104492v-0.523438v-1.04492c0 -7.63281 -5.95898 -13.8008 -13.5908 -14.1143l-93.2607 -3.4502h-0.522461c-7.52734 0 -13.8008 5.95898 -14.1143 13.5918
c-0.313477 7.84082 5.75 14.3232 13.5918 14.6367l60.7441 2.2998c-76.6357 62.418 -189.761 61.3721 -265.352 -7.00488zM483.505 243.591c20.0732 -82.9102 -6.69141 -169.792 -69.8408 -226.981c-43.0752 -38.8936 -97.8604 -60.0127 -155.468 -60.0127
c-3.86816 0 -7.8418 0.104492 -11.8145 0.313477c-49.6621 2.50977 -96.1875 20.3877 -134.14 51.126l5.01855 -56.5625c0.731445 -7.8418 -5.01855 -14.6377 -12.7549 -15.3691c-0.418945 -0.104492 -0.836914 -0.104492 -1.25488 -0.104492
c-7.21387 0 -13.3828 5.54102 -14.0098 12.8594l-8.36426 92.9463c-0.732422 7.8418 5.01855 14.6377 12.7549 15.3691l92.9463 8.36426c7.8418 0.732422 14.6377 -4.91406 15.3691 -12.7549c0.732422 -7.8418 -5.01855 -14.6377 -12.7549 -15.3691l-61.4766 -5.54102
c37.4297 -31.1562 83.8506 -46.9443 130.376 -46.9443c48.7207 0 97.6504 17.3555 136.648 52.5898c55.5166 50.1846 79.041 126.611 61.3721 199.38c-1.88184 7.52734 2.82227 15.1592 10.3506 17.042c7.52734 1.88184 15.1602 -2.82324 17.042 -10.3506z" />
    </font>
</defs>
</svg>
